<?xml version="1.0" standalone="no"?>
<!DOCTYPE svg PUBLIC "-//W3C//DTD SVG 1.1//EN" "http://www.w3.org/Graphics/SVG/1.1/DTD/svg11.dtd" >
<svg xmlns="http://www.w3.org/2000/svg">
<metadata>Generated by IcoMoon</metadata>
<defs>
<font id="mvx-frontend-font" horiz-adv-x="1024">
<font-face units-per-em="1024" ascent="960" descent="-64" />
<missing-glyph horiz-adv-x="1024" />
<glyph unicode="&#x20;" horiz-adv-x="512" d="" />
<glyph unicode="&#xe900;" glyph-name="badge-icon" horiz-adv-x="702" d="M665.198 647.641c-17.675-16.902-34.117-32.617-50.62-48.393 9.475-21.99 18.699-43.443 28.189-65.469-19.784-8.733-38.739-17.854-58.318-25.394-9.25-3.563-11.748-8.426-11.41-17.829 0.737-21.028 0.23-42.102 0.23-63.954-22.108 0-43.203-0.241-64.302 0.148-6.056 0.113-8.943-1.746-11.087-7.438-7.192-19.042-14.988-37.848-22.978-57.837-20.48 8.241-40.633 15.899-60.376 24.555-6.956 3.051-11.113 2.703-16.503-3.046-15.095-16.129-30.979-31.563-46.709-47.421-16.948 17.184-33.359 33.84-49.596 50.318-23.137-9.966-44.595-19.236-66.816-28.814-9.178 20.874-18.448 41.181-26.976 61.794-2.472 5.989-5.426 8.047-11.891 7.929-22.4-0.43-44.81-0.169-68.244-0.169 0 20.987-0.297 41.002 0.164 60.996 0.154 6.777-1.705 10.058-8.359 12.51-19.083 7.018-37.802 14.998-57.029 22.743 9.567 23.659 18.847 46.586 28.297 69.974-18.054 17.757-36 35.407-55.022 54.101 14.722 14.65 28.507 29.105 43.172 42.609 6.398 5.897 6.834 10.668 3.276 18.197-8.426 17.788-15.919 36.016-24.181 54.955 20.711 9.122 40.966 18.458 61.594 26.894 6.48 2.646 8.4 5.871 8.252 12.659-0.466 22.088-0.174 44.196-0.174 67.205 24.258 0 47.953 0 71.981 0 8.85 22.001 17.424 43.336 26.372 65.592 20.793-8.374 41.176-16.324 61.318-24.877 6.025-2.559 9.961-2.81 14.788 2.621 13.304 14.957 29.116 27.554 41.524 43.402 3.66 4.679 6.956 5.226 11.543 0.461 14.624-15.208 29.674-30.022 45.076-45.506 21.924 9.439 43.617 18.771 65.751 28.297 9.224-20.992 18.53-41.365 27.027-62.065 2.508-6.117 5.651-7.796 11.963-7.683 22.39 0.404 44.789 0.154 68.1 0.154 0-21.361 0.353-41.723-0.179-62.065-0.2-7.535 1.71-11.272 9.255-13.974 18.812-6.741 37.173-14.711 56.169-22.369-9.577-23.639-18.863-46.52-28.21-69.6 18.105-17.854 36.026-35.54 54.94-54.208zM349.803 871.931c-124.883-0.389-224.572-99.909-224.091-223.732 0.476-123.875 101.844-224.183 226.015-223.671 123.778 0.512 223.748 99.904 223.615 222.304-0.148 124.863-100.963 225.483-225.539 225.099zM193.322-64c-22.835 32.581-44.61 63.407-66.048 94.447-3.957 5.738-7.294 7.806-14.804 5.559-34.792-10.509-69.851-20.127-104.812-30.052-2.196-0.619-4.305-2.099-7.663-0.322 8.4 24.186 16.81 48.429 25.215 72.666 33.938 97.836 67.988 195.64 101.577 293.583 2.616 7.637 5.994 10.545 13.549 9.234 1.326-0.23 2.723-0.046 4.085-0.067 10.524-0.21 23.521 3.266 30.866-1.679 7.361-4.94 9.142-18.238 13.237-27.954 7.13-16.887 14.138-33.825 21.233-50.722 0.23-0.558 0.932-0.927 2.124-2.058 22.548 9.997 45.583 19.856 68.269 30.452 6.926 3.24 11.328 2.948 16.442-3.056 7.033-8.262 19.303-14.63 21.519-23.726 2.191-8.958-5.134-20.368-8.656-30.585-38.022-110.075-76.106-220.129-114.185-330.183-0.399-1.177-0.829-2.37-1.95-5.539zM701.787 16.621c-39.42 9.009-76.864 17.348-114.159 26.265-7.381 1.771-11.425 0.691-15.464-6.23-19.349-33.154-39.312-65.945-58.963-98.696-3.86 0.261-3.522 3.471-4.31 5.329-46.668 111.134-93.152 222.35-139.917 333.454-2.677 6.378-1.94 10.135 3.092 14.855 12.904 12.126 25.486 24.637 37.546 37.613 4.883 5.247 8.917 5.308 15.029 2.8 24.176-9.92 48.531-19.349 73.485-29.233 5.462 8.815 8.359 18.464 12.265 27.642 6.107 14.379 12.48 28.665 17.941 43.279 2.375 6.347 5.912 7.52 12.060 7.617 6.393 0.107 9.536-1.74 12.050-7.786 37.572-90.296 75.395-180.473 113.166-270.672 11.809-28.164 23.628-56.327 36.18-86.236zM169.396 647.027c-0.184 100.129 80.703 181.195 180.944 181.344 99.73 0.148 180.734-80.258 181.272-179.967 0.548-101.398-80.206-182.265-181.937-182.178-99.668 0.082-180.090 80.744-180.279 180.801z" />
<glyph unicode="&#xe901;" glyph-name="call-icon" d="M615.126 165.571c17.97-3.977 33.943 4.796 48.374 21.303 18.887 21.601 39.759 41.484 59.909 61.979 20.915 21.279 49.091 23.689 73.502 6.168 66.927-48.052 133.776-96.232 200.673-144.34 7.813-5.622 15.087-11.681 19.998-20.247 10.266-17.934 8.864-35.929-6.599-51.3-50.256-49.965-110.317-82.33-179.904-95.99-74.449-14.613-147.533-5.61-219.317 16.070-111.817 33.773-208.772 94.108-296.535 169.832-80.168 69.174-150.878 146.926-207.479 236.832-50.074 79.531-87.089 164.325-102 257.808-17.139 107.47 3.412 206.003 70.072 293.427 7.042 9.234 14.862 18.007 23.149 26.154 24.764 24.351 52.399 21.995 73.065-6.229 21.88-29.882 43.329-60.079 64.966-90.137 26.263-36.475 52.454-72.998 78.815-109.401 21.88-30.216 19.707-56.048-7.097-82.081-21.516-20.891-42.394-42.485-64.663-62.538-11.098-9.993-14.425-21.273-14.589-35.249-0.777-67.037 16.616-129.393 50.766-186.521 59.83-100.094 144.928-167.926 259.216-196.563 23.44-5.865 47.391-9.028 75.676-8.979z" />
<glyph unicode="&#xe902;" glyph-name="facebook-icon" horiz-adv-x="1025" d="M0 960c0-341.633 0-682.398 0-1024 342.146 0 683.198 0 1024.581 0 0 341.633 0 682.648 0 1024-341.827 0-683.079 0-1024.581 0zM632.468 448.184c-25.581 0-50.73 0-77.049 0 0-93.509 0-185.798 0-278.707-38.684 0-76.173 0-114.807 0 0 92.546 0 184.792 0 278.475-20.080 0-38.29 0-57.344 0 0 32.013 0 63.458 0 95.94 18.26 0 36.721 0 54.55 0 3.851 4.932 2.226 9.565 2.376 13.859 1.019 29.719-2.501 59.645 4.52 89.083 10.996 46.135 41.428 73.010 88.639 78.511 35.671 4.163 71.416 1.088 107.881 2.338 0-32.201 0-63.658 0-96.441-9.883 0-19.817 0.025-29.75-0.006-8.208-0.031-16.435 0.306-24.612-0.263-22.849-1.582-29.825-8.239-30.757-30.919-0.744-18.142-0.144-36.333-0.144-55.594 28.894 0 57.038 0 86.688 0-3.445-32.532-6.758-63.814-10.19-96.278z" />
<glyph unicode="&#xe903;" glyph-name="google-plus-icon" d="M0 960c0-341.208 0-682.435 0-1024 341.367 0 682.315 0 1023.612 0 0 341.571 0 682.493 0 1024-341.393 0-682.066 0-1023.612 0zM592.735 788.667c-25.448-21.108-54.313-29.877-87.162-25.219-2.259 0.318-4.601 0.038-7.585 0.038 0.745-4.035 3.933-5.326 6.115-7.235 27.739-24.264 47.822-53.117 53.989-90.235 7.783-46.868-2.622-88.511-35.884-123.498-10.551-11.104-22.234-20.949-34.249-30.386-7.223-5.657-13.497-12.237-19.148-19.396-16.202-20.567-14.884-43.756 4.467-61.288 11.932-10.824 25.13-20.268 37.761-30.341 13.090-10.455 25.55-21.611 37.704-33.148 58.341-55.319 52.856-135.137 10.869-188.158-28.585-36.069-66.385-58.239-110.026-70.496-67.403-18.906-134.92-19.861-201.91 2.335-21.636 7.184-41.179 18.486-58.004 34.071-46.371 42.922-49.267 110.255-6.739 159.853 27.020 31.487 62.681 48.554 101.677 59.658 33.752 9.603 68.434 13.414 103.293 15.934 2.876 0.204 5.753 0.331 11.098 0.643-25.881 29.877-37.049 61.122-18.575 98.158-18.34-1.718-35.229-2.386-52.245-0.261-102.479 12.797-158.663 116.231-113.882 209.991 22.775 47.695 61.873 76.28 110.402 93.564 33.453 11.919 68.039 17.64 103.548 17.665 60.231 0.064 120.456 0.019 183.411 0.025-7.655-4.906-13.777-8.005-18.925-12.275zM870.746 424.9c-30.405 0-60.562 0-91.419 0 0-30.819 0-60.957 0-91.705-15.47 0-30.259 0-45.805 0 0 30.182 0 60.32 0 91.406-30.831 0-60.899 0-91.489 0 0 15.801 0 30.641 0 46.454 30.17 0 60.288 0 91.292-0.006 0 31.067 0 61.173 0 91.75 15.451 0 29.998 0 45.449 0 0-30.278 0-60.365 0-91.273 30.991 0 61.122 0 91.979-0.006-0.006-15.852-0.006-30.876-0.006-46.62zM417.749 746.044c-48.312 39.989-118 17.245-133.966-43.38-3.099-11.773-3.665-23.723-3.869-30.087-0.115-24.869 2.775-43.718 8.126-62.070 9.902-34.013 24.665-65.227 53.276-88.034 48.128-38.372 126.565-12.683 136.352 49.776 4.461 28.439 0.935 56.235-6.764 83.535-9.762 34.65-24.646 66.665-53.155 90.261zM404.958 355.518c-16.8-0.21-32.55-1.845-48.223-4.238-29.196-4.435-57.374-11.944-82.115-28.986-46.32-31.907-54.676-93.156-18.677-136.384 12.657-15.203 28.547-26.014 46.505-33.892 36.050-15.813 74.002-19.727 112.807-16.927 24.78 1.788 48.643 7.433 70.209 20.472 49.636 29.998 59.728 92.577 21.865 136.295-17.653 20.383-40.256 34.936-60.95 51.78-12.886 10.474-26.504 14.089-41.42 11.881z" />
<glyph unicode="&#xe904;" glyph-name="instagram-icon" d="M694.334 666.356c-15.622 0.385-31.275 0.373-46.903 0.012-14.046-0.326-21.97-8.528-22.314-22.432-0.196-7.811-0.041-15.634-0.006-23.451 0-7.817-0.178-15.64 0.041-23.451 0.391-14.135 8.167-21.893 22.462-22.106 15.634-0.231 31.269-0.207 46.909 0.047 13.163 0.219 21.567 8.256 21.964 21.656 0.48 15.99 0.492 32.021-0.006 48.017-0.409 13.193-8.878 21.377-22.148 21.709zM715.077 496.257c-15.285 0-30.8 0-47.093 0 14.005-84.72-6.217-143.891-64.505-182.254-55.953-36.828-115.628-40.283-173.050-5.69-70.935 42.725-92.004 108.207-74.491 187.63-16.108 0-31.897 0-48.396 0 0-4.137 0-7.45 0-10.751 0-71.593-0.018-143.198 0.018-214.791 0.006-19.724 7.147-26.788 27.037-26.788 118.212-0.018 236.429-0.018 354.635 0 20.399 0 27.41 7.059 27.416 27.618 0.018 71.226 0.024 142.445-0.041 213.671-0.006 3.609 1.002 7.444-1.529 11.355zM512.939 342.19c57.399 0.267 105.12 48.456 104.995 105.985-0.124 57.891-47.804 105.197-105.671 104.859-59.675-0.356-106.696-47.679-106.044-106.726 0.652-57.512 48.699-104.385 106.72-104.118zM0 960c0-341.549 0-682.321 0-1024 342.017 0 683.062 0 1024.243 0 0 341.726 0 682.748 0 1024-341.798 0-682.795 0-1024.243 0zM772.891 246.452c-0.012-35.826-23.469-59.331-59.55-59.349-134.225-0.065-268.444-0.071-402.669 0-36.247 0.024-59.307 23.244-59.313 59.444-0.024 134.219-0.024 268.444 0 402.664 0.006 35.696 23.866 59.704 59.444 59.71 134.213 0.036 268.444 0.036 402.658 0 35.405-0.012 59.402-24.234 59.42-59.817 0.030-67.107 0.006-134.219 0.006-201.332 0.006-67.113 0.030-134.213 0.006-201.32z" />
<glyph unicode="&#xe905;" glyph-name="linkedin-icon" horiz-adv-x="1025" d="M0-64c0 341.616 0 682.34 0 1024 341.519 0 682.741 0 1024.58 0 0-341.393 0-682.377 0-1024-341.423 0-682.429 0-1024.58 0zM800.636 206.837c0 13.199 0.156 25.111-0.030 37.009-1.085 64.841 3.537 129.83-2.371 194.5-5.455 59.906-38.154 116.646-114.811 124.784-45.623 4.845-84.795-7.64-113.533-45.571-2.059-2.72-3.292-6.488-8.383-8.368 0 15.896 0 30.596 0 45.734-38.808 0-76.62 0-114.922 0 0.721-116.319 0.431-232.052-0.654-347.962 39.202 0 77.051 0 115.933 0 0 4.689 0 8.71 0 12.73 0 60.404 0.134 120.808-0.059 181.205-0.074 22.391 6.473 41.728 23.655 56.8 32.714 28.693 81.733 14.982 94.054-26.464 3.731-12.552 4.972-25.52 4.949-38.644-0.111-57.788-0.082-115.591 0.007-173.379 0.007-3.968-1.063-8.145 1.315-12.366 37.782-0.007 75.639-0.007 114.848-0.007zM266.794 554.896c0-116.698 0-232.394 0-347.739 38.771 0 76.605 0 114.647 0 0 116.267 0 231.688 0 347.739-38.421 0-76.271 0-114.647 0zM323.453 603.811c36.623-0.007 64.098 22.793 65.599 54.674 1.241 26.167-8.747 46.477-32.55 58.591-24.45 12.433-58.368 8.375-77.712-8.621-18.601-16.342-24.926-42.33-16.104-66.193 8.985-24.279 31.361-38.444 60.768-38.451z" />
<glyph unicode="&#xe906;" glyph-name="location-icon" d="M511.473-63.257c-23.406 39.954-45.682 77.941-67.918 115.952-55.758 95.326-112.418 190.16-160.815 289.552-26.407 54.231-49.796 109.685-64.576 168.392-18.771 74.571-29.193 150.154-5.512 224.935 38.766 122.418 122.119 197.48 249.487 219.873 152.547 26.823 302.519-67.485 347.259-215.479 19.526-64.588 16.080-129.083 3.493-193.782-16.653-85.524-52.827-163.653-92.505-240.459-41.943-81.2-88.433-159.814-134.021-238.943-24.594-42.692-49.175-85.396-74.892-130.042zM511.538 529.879c79.018-0.884 150.077 61.657 151.458 150.575 1.281 82.482-67.25 151.523-149.791 152.114-83.629 0.603-152.313-66.765-153.155-150.218-0.848-83.921 66.566-151.769 151.488-152.471z" />
<glyph unicode="&#xe907;" glyph-name="mail-icon" d="M948.382 825.462c-1.035-4.332-4.445-6.347-7.055-8.907-92.835-91.187-185.698-182.345-278.579-273.481-28.469-27.929-56.798-55.994-85.51-83.659-41.213-39.717-97.348-34.068-129.739-3.286-26.692 25.364-52.387 51.982-78.679 77.88-98.597 97.111-197.379 194.048-296.819 291.772 20.818 10.319 42.175 15.889 65.075 15.872 81.065-0.045 162.135 0.068 243.2 0.073 162.968 0.017 325.936-0.118 488.904 0.118 27.71 0.039 54.694-1.834 79.202-16.384zM72.636 73.751c1.907 6.296 6.307 9.070 9.751 12.519 100.256 100.284 200.676 200.406 300.685 300.938 8.423 8.462 13.458 10.099 23.856 2.2 64.681-49.124 153.684-47.695 217.735 6.836 107.627-107.987 215.214-215.929 322.802-323.871-18.145-9.739-39.345-15.461-62.081-15.461-249.085-0.006-498.17-0.039-747.25 0.039-22.95 0.011-44.932 4.467-65.497 16.8zM15.94 131.753c-10.538 18.336-15.72 39.525-15.754 61.626-0.248 170.884-0.242 341.768-0.011 512.658 0.028 21.971 6.138 42.8 16.030 64.821 108.6-106.597 215.873-211.895 321.879-315.949-107.486-107.824-214.663-215.338-322.144-323.156zM684.476 454.954c105.534 103.61 212.587 208.699 320.388 314.537 12.952-21.566 17.56-44.426 17.588-68.287 0.152-121.788 0.090-243.583 0.096-365.377 0.006-46.142 0.039-92.278 0.006-138.42-0.017-23.451-5.812-45.45-15.883-66.104-107.419 107.903-214.275 215.231-322.194 323.652z" />
<glyph unicode="&#xe908;" glyph-name="twitter-icon" d="M0-64c0 341.765 0 682.493 0 1024 341.468 0 682.426 0 1024.185 0 0-341.329 0-682.301 0-1024-341.256 0-682.261 0-1024.185 0zM274.367 289.175c1.758-5.5 4.323-6.419 6.577-7.608 91.182-48.724 185.511-54.971 277.632-8.263 102.836 52.142 152.744 142.22 161.813 255.765 0.992 12.434 3.358 23.136 12.731 32.113 10.22 9.79 19.586 20.459 29.237 30.824 2.862 3.074 5.976 6.174 5.903 11.337-15.19-1.507-27.75-11.746-45.115-9.922 11.958 17.623 27.829 30.407 33.772 52.691-18.866-9.4-36.277-15.448-53.781-21.265-6.174-2.056-10.907-1.626-16.387 2.406-13.188 9.73-26.653 19.831-42.841 23.552-77.129 17.716-134.341-43.562-130.051-103.947 0.456-6.471 1.666-13.194-0.555-19.553-85.775 5.956-153.564 46.213-210.101 108.977-22.739-51.884-14.728-96.682 25.992-136.635-16.684-1.857-27.367 7.734-41.030 7.377 3.834-49.187 30.123-81.459 76.527-101.752-14.040-3.371-25.013-0.165-35.53-3.186-2.446-8.051 1.963-14.060 5.731-19.765 14.913-22.62 35.96-37.308 61.284-46.325 6.366-2.281 13.273-3.444 18.978-7.721-41.803-31.372-89.801-38.974-140.786-39.1z" />
<glyph unicode="&#xe909;" glyph-name="youtube-icon" d="M0 960c0-341.676 0-682.602 0-1024 341.417 0 682.343 0 1024.151 0 0 341.808 0 682.734 0 1024-341.701 0-682.86 0-1024.151 0zM579.003 695.799c11.215 0 21.788 0 33.602 0 0-14.794 0-29.582 0-44.371 0-25.355-0.183-50.709 0.126-76.057 0.088-7.164-3.113-17.182 9.243-17.8 9.451-0.466 19.432 10.371 19.444 20.175 0.038 31.687 0.013 63.386 0.013 95.067 0 7.416 0 14.826 0 23.351 11.675 0 22.003 0 33.004 0.013 0-55.328 0-110.347 0-166.254-10.352 0-20.912 0-31.87 0-2.672 4.518-0.063 9.911-1.865 15.809-7.038-4.965-13.005-11.045-20.648-14.612-24.189-11.304-40.918-1.084-41.006 25.487-0.158 46.16-0.044 92.333-0.044 139.192zM454.253 660.716c0.372 17.176 9.678 29.305 25.726 35.795 13.566 5.475 27.56 5.986 41.504 1.846 18.808-5.589 30.231-20.931 30.496-40.596 0.202-14.883 0.038-29.778 0.038-44.667 0.006-14.145 0.151-28.291-0.025-42.436-0.353-28.221-18.033-44.969-47.975-45.643-28.392-0.636-48.737 16.092-49.663 43.035-1.065 30.849-0.762 61.786-0.101 92.666zM353.937 756.42c6.717 0.397 9.672-1.626 11.379-8.531 5.891-23.76 12.621-47.319 19.066-70.947 0.939-3.447 2.092-6.843 3.56-11.6 5.053 7.378 5.4 14.914 7.296 21.763 5.538 20.030 10.85 40.136 15.506 60.375 1.531 6.666 3.793 9.483 10.976 8.979 9.577-0.674 19.236-0.164 30.024-0.164-9.483-28.782-17.491-57.004-28.083-84.204-12.495-32.103-18.455-64.678-16.048-99.043 0.983-14.032 0.164-28.19 0.164-43.476-13.276 0-25.040 0-38.322-0.013 0 9.294-0.844 18.191 0.139 26.886 5.419 48.012-7.851 92.547-24.151 136.709-7.536 20.44-13.685 41.384-20.805 63.134 10.762-0.006 20.062-0.41 29.299 0.132zM757.411 181.386c-6.477-33.281-16.653-41.1-55.586-46.481-82.566-11.398-165.592-13.043-248.738-10.371-43.173 1.386-86.309 3.793-129.155 10.094-43.167 6.358-50.797 11.858-58.598 55.151-12.992 72.145-12.507 144.598 1.134 216.654 6.603 34.863 16.704 42.398 55.397 48.044 63.223 9.212 126.893 10.667 190.6 11.486 62.99-0.882 125.922-2.174 188.389-11.392 1.462-0.214 2.98-0.271 4.429-0.536 39.21-7.158 45.593-12.123 53.078-51.692 13.906-73.588 13.377-147.452-0.951-220.958zM567.422 340.52c-2.262-1.619-3.598-4.883-8.437-4.486 0 20.875 0 41.787 0 62.422-10.396 0-19.507 0-28.751 0 0-68.289 0-135.897 0-203.883 9.703 0 18.858 0 27.339 0 3.106 2.558 0.195 6.402 3.472 8.575 2.955-2.123 5.772-4.467 8.884-6.345 20.037-12.079 43.533-2.438 44.415 19.797 1.38 34.566 1.657 69.309-0.183 103.832-1.361 25.323-25.922 34.831-46.74 20.087zM584.989 231.465c-0.050-7.656-0.706-15.55-11.165-15.929-9.187-0.347-14.429 5.866-14.454 16.584-0.025 12.999-0.006 26.016-0.006 39.015 0 13.011 0.397 26.029-0.139 39.015-0.359 8.758 4.196 12.161 11.72 12.967 7.492 0.8 11.953-2.961 13.301-10.333 0.397-2.186 0.762-4.411 0.762-6.616 0.063-24.901 0.145-49.802-0.019-74.703zM680.289 349.278c-24.788 1.676-45.335-12.173-47.823-35.215-3.264-30.313-3.239-60.942 0.284-91.287 1.941-16.659 14.631-28.807 30.162-31.97 36.816-7.485 60.242 15.147 54.439 52.902-9.464 0-18.959 0-28.625 0-0.265-5.381-0.302-10.195-0.769-14.964-0.75-7.586-4.442-12.595-12.677-12.665-8.122-0.076-12.721 4.619-13.055 12.249-0.548 12.469-0.145 24.97-0.145 38.265 19.262 0 37.364 0 56.241 0 0 14.864 0.542 28.933-0.12 42.928-1.166 24.586-14.473 38.177-37.912 39.758zM687.869 290.013c-8.349 0-16.401 0-25.978 0 0 7.145-0.397 13.805 0.107 20.402 0.529 6.975 3.799 11.783 11.745 12.318 8.305 0.573 13.030-3.478 13.956-11.102 0.838-6.893 0.17-13.963 0.17-21.618zM477.648 310.85c0-24.945 0.107-49.884-0.069-74.829-0.057-7.832-9.936-17.044-17.743-16.741-10.693 0.422-8.071 8.802-8.197 15.002-0.277 14.139-0.088 28.284-0.088 42.43 0 22.595 0 45.196 0 68.011-10.27 0-19.369 0-29.141 0 0-44.761-0.554-88.98 0.284-133.181 0.321-16.993 14.379-23.748 31.737-17.51 8.399 3.018 14.687 9.269 21.895 14.498 2.804-4.814-0.214-9.697 2.911-13.963 8.582 0 17.409 0 27.308 0 0 50.558 0 100.246 0 150.105-9.766 0-18.89 0-28.896 0 0-11.65 0-22.74 0-33.823zM306.454 369.284c11.556 0 22.551 0 34.251 0 0-58.692 0-116.326 0-174.489 11.266-1.197 21.769-1.027 33.092-0.214 0 58.617 0 116.219 0 175.17 12.060 0 23.338 0 34.39 0 0 10.497 0 19.64 0 28.681-34.352 0-68.018 0-101.733 0 0-9.855 0-18.978 0-29.148zM489.229 613.271c0-14.152 0.158-28.316-0.057-42.474-0.139-9.489 2.552-16.181 13.509-16.25 9.829-0.063 14.649 4.404 14.763 15.412 0.284 29.041 0.095 58.113 0.113 87.166 0.006 9.71-5.060 14.423-14.498 14.435-9.647 0.013-14.070-4.959-13.893-14.706 0.258-14.523 0.063-29.053 0.063-43.583z" />
<glyph unicode="&#xe90a;" glyph-name="store-icon" horiz-adv-x="1390" d="M695.051-63.989c-164.127 0-328.252-0.041-492.376 0.027-45.004 0.019-73.917 29.517-73.895 74.803 0.066 140.42-0.022 280.84 0.285 421.26 0.022 10.715-2.24 16.447-13.451 20.939-48.727 19.524-85.623 52.675-109.502 99.922-6.284 12.431-7.838 24.736-4.131 38.151 17.128 62.022 43.064 120.737 67.663 179.925 17.453 42.003 36.034 83.535 54.116 125.278 5.28 12.187 12.258 23.324 20.337 33.862 15.785 20.586 35.757 30.092 62.408 29.816 89.305-0.919 178.623-0.309 267.939-0.388 77.919-0.068 155.838-0.399 233.76-0.394 86.126 0.003 172.257 0.361 258.381 0.367 69.266 0.005 138.535-0.356 207.802-0.372 12.636 0 22.853-5.269 32.261-12.877 13.711-11.090 24.033-25.056 31.895-40.575 45.852-90.498 92.79-180.478 132.558-273.911 5.868-13.788 10.694-28.024 15.839-42.11 4.662-12.759 2.64-24.785-3.482-36.761-24.054-47.050-60.805-80.299-109.494-100.048-9.457-3.835-12.879-7.879-12.852-18.326 0.375-142.704 0.233-285.409 0.2-428.116-0.008-40.003-30.713-70.454-71.176-70.462-165.027-0.027-330.060-0.011-495.084-0.011zM1173.973-19.948c4.867-0.243 7.572-0.495 10.275-0.498 29.838-0.041 33.232 3.146 33.246 32.409 0.057 137.654 0.041 275.312 0.019 412.966 0 4.008-0.369 8.013-0.561 11.919-103.060 7.083-105.768 8.297-188.816 84.687-41.935-54.568-97.296-84.662-166.362-84.356-68.9 0.304-124.088 30.935-167.005 85.319-43.453-54.94-98.852-85.081-167.771-85.324-69.102-0.246-124.088 30.587-166.305 85.106-48.429-61.062-110.052-89.833-187.391-84.651-0.263-3.406-0.643-6.062-0.643-8.721-0.008-141.755-0.044-283.513 0.101-425.265 0.019-18.693 6.423-24.101 26.563-24.101 210.578-0.014 421.154-0.038 631.732 0.047 5.263 0.003 10.888-1.636 16.81 2.402 0 4.921 0 10.319 0 15.722 0 130.358-0.016 260.72 0 391.075 0.005 18.282 6.795 26.057 23.674 26.079 92.065 0.118 184.138 0.126 276.206-0.022 19.281-0.030 26.325-7.594 26.317-26.443-0.057-102.099-0.063-204.204-0.085-306.304-0.011-33.626-0.005-67.258-0.005-102.045zM956.424 915.795c1.086-5.698 1.507-9.29 2.462-12.732 25.781-92.806 51.512-185.626 77.522-278.37 5.871-20.93 9.353-42.695 19.376-62.282 56.641-110.678 216.542-103.888 276.171-12.236 11.211 17.226 13.383 32.073 4.968 51.673-30.513 71.072-64.788 140.297-99.397 209.383-14.455 28.853-29.52 57.402-44.416 86.033-6.56 12.617-15.563 19.571-31.389 18.898-30.004-1.275-60.105-0.367-90.164-0.367-37.727 0-75.457 0-115.135 0zM406.904 915.136c-5.572 0.309-8.688 0.632-11.807 0.629-58.786-0.027-117.671-2.161-176.312 0.709-29.928 1.466-44.744-10.844-54.245-35.807-1.133-2.971-2.53-5.841-3.789-8.762-20.162-46.766-40.66-93.392-60.381-140.341-18.662-44.424-36.324-89.239-51.952-134.87-5.080-14.841-3.080-26.692 4.768-39.697 49.745-82.408 171.508-102.884 244.445-40.162 19.781 17.013 36.545 36.83 41.97 63.751 16.088 79.807 32.278 159.594 48.369 239.401 6.284 31.162 12.414 62.356 18.933 95.148zM670.384 914.933c-2.774 0.252-5.871 0.777-8.967 0.78-65.163 0.063-130.328-0.257-195.486 0.383-11.643 0.115-15.254-3.658-17.412-14.655-20.676-105.308-41.77-210.532-63.401-315.646-2.23-10.833-0.616-19.292 4.697-28.344 59.544-101.435 210.389-103.7 273.063-4.117 6.53 10.374 9.651 21.010 9.618 33.402-0.295 104.307-0.15 208.617-0.23 312.924-0.005 4.889 1.245 10.021-1.882 15.273zM715.308 915.647c0-50.213-0.030-98.423 0.005-146.63 0.047-59.664 0.263-119.328 0.085-178.99-0.027-8.82 0.471-17.243 4.681-25.091 29.649-55.276 76.921-82.884 138.571-84.312 62.364-1.444 110.859 24.552 142.491 79.591 3.671 6.388 4.465 12.513 2.506 19.535-30.286 108.594-60.572 217.19-90.498 325.882-2.287 8.305-6.183 10.401-14.25 10.327-43.748-0.399-87.502-0.271-131.253-0.312-16.791-0.014-33.585 0-52.338 0zM1129.379-19.152c0 130.848 0 260.43 0 390.381-79.473 0-158.010 0-237.245 0 0-130.402 0-259.981 0-390.381 79.257 0 157.77 0 237.245 0zM511.758 393.135c88.424 0 176.848 0.011 265.272-0.008 19.396-0.005 27.414-7.824 27.414-27.233-0.005-90.705-0.085-181.411-0.216-272.119-0.030-19.308-8.018-27.042-27.685-27.050-177.767-0.052-355.534-0.088-533.301-0.085-19.108 0-27.096 8.111-27.11 27.668-0.060 90.703-0.033 181.408-0.011 272.116 0.003 19.242 7.903 26.831 27.633 26.828 89.335-0.011 178.67-0.003 268.005-0.003 0-0.041 0-0.077 0-0.115zM585.549 349.453c-51.033 0-100.491 0-150.701 0 0-79.779 0-158.752 0-238.151 50.62 0 100.45 0 150.701 0 0 79.547 0 158.229 0 238.151zM389.604 110.864c0 80.296 0 159.225 0 238.454-43.688 0-86.26 0-128.772 0 0-79.974 0-159.006 0-238.454 43.198 0 85.472 0 128.772 0zM630.613 349.201c0-80.045 0-159.025 0-237.951 43.614 0 86.23 0 128.961 0 0 79.752 0 158.691 0 237.951-43.581 0-86.164 0-128.961 0z" />
<glyph unicode="&#xe90b;" glyph-name="location-icon2" horiz-adv-x="967" d="M284.516 362.733c-12.804 23.561-25.215 45.744-37.007 68.245-23.388 44.636-44.153 90.357-60.451 138.198-25.125 73.749-17.202 144.872 16.885 213.118 45.34 90.774 118.106 150.132 217.553 170.595 116.547 23.982 215.129-13.489 294.863-100.463 40.424-44.093 64.556-96.844 74.873-155.783 8.789-50.213 0.142-98.293-17.327-145.516-22.947-62.040-53.199-120.474-85.847-177.791-1.672-2.934-3.203-5.949-4.835-8.996 2.878-2.886 6.137-1.524 8.979-1.53 41.294-0.112 82.59-0.044 123.885-0.098 12.715-0.017 19.634-5.354 23.638-17.381 41.288-124.032 82.62-248.050 123.932-372.076 0.546-1.637 0.95-3.319 1.483-4.96 6.326-19.49-2.734-32.247-23.153-32.263-70.099-0.054-140.197-0.017-210.296-0.017-232.158 0.004-464.316 0.008-696.477 0.010-3.123 0-6.247-0.037-9.37-0.012-21.473 0.167-30.36 12.315-23.64 32.611 15.284 46.165 30.656 92.298 46.038 138.429 26.293 78.849 52.611 157.691 78.944 236.529 5.141 15.39 10.349 19.132 26.427 19.141 39.907 0.019 79.815 0.006 119.722 0.008 3.334 0.002 6.672 0.002 11.182 0.002zM915.543-20.461c0.081 1.022 0.221 1.408 0.121 1.71-36.917 110.908-73.903 221.795-110.635 332.765-1.895 5.728-5.125 6.255-10.003 6.241-42.677-0.121-85.354-0.273-128.028 0.048-7.465 0.056-11.634-2.243-15.615-8.731-46.342-75.529-95.711-149.045-148.268-220.401-12.046-16.354-26.968-16.419-38.891-0.244-52.793 71.617-102.316 145.441-148.876 221.243-3.473 5.658-6.938 8.263-13.824 8.208-42.329-0.317-84.662-0.373-126.987 0.029-7.973 0.075-11.309-2.699-13.745-10.062-28.811-87.084-57.963-174.060-86.974-261.079-7.68-23.037-15.182-46.133-22.937-69.726 288.757 0 576.378 0 864.664 0zM483.399 137.005c2.695 3.532 4.614 5.916 6.393 8.4 51.11 71.469 99.953 144.441 144.922 219.943 35.343 59.341 67.619 120.197 94.21 184.126 31.014 74.565 31.074 147.904-4.762 220.451-50.477 102.187-159.944 160.021-274.106 144.826-99.842-13.287-171.401-65.926-212.809-157.766-18.768-41.625-26.535-85.791-20.105-131.589 5.281-37.608 19.236-72.57 34.418-107.012 25.946-58.863 57.561-114.729 90.886-169.649 43.789-72.16 90.903-142.111 140.953-211.731zM483.671 497.295c-81.081-0.044-151.969 70.89-151.817 151.917 0.15 79.519 71.623 150.853 151.084 150.792 81.168-0.062 152.456-71.019 152.343-151.635-0.115-80.444-70.952-151.032-151.61-151.073zM483.946 757.019c-65.64-0.86-109.515-45.886-108.719-111.58 0.75-62.030 47.891-106.626 111.699-105.667 61.826 0.929 105.825 47.964 105.063 112.311-0.716 60.324-47.464 105.729-108.042 104.936z" />
<glyph unicode="&#xe90c;" glyph-name="attachment-icon" horiz-adv-x="1119" d="M335.042-64c-98.066 2.275-184.561 34.386-250.722 109.766-59.34 67.596-88.467 147.776-83.841 237.89 4.209 81.902 34.007 155.298 91.836 213.849 128.199 129.884 258.338 257.834 387.718 386.58 19.695 19.571 39.353 39.266 59.092 58.837 21.629 21.467 50.463 22.81 70.245 3.37 19.994-19.782 18.943-49.368-2.903-71.128-146.719-146.004-293.482-291.971-440.331-437.932-29.002-28.871-51.097-62.076-61.703-101.895-46.129-171.972 81.902-292.475 201.434-308.172 74.037-9.717 137.381 14.1 192.469 62.754 9.052 8.001 17.55 16.63 26.099 25.129 152.818 151.817 305.599 303.628 458.466 455.482 13.808 13.721 25.844 28.828 34.386 46.465 17.090 35.312 17.637 71.339 1.809 106.95-18.141 40.615-46.975 72.39-85.613 94.112-55.088 31.016-120.795 21.38-169.063-23.4-9.139-8.418-17.805-17.345-26.646-26.092-143.934-143.113-287.625-286.469-432.113-429.060-21.467-21.169-30.177-44.407-23.444-73.024 12.962-54.796 78.451-75.249 118.985-36.873 35.822 34.013 70.456 69.194 105.433 104.003 95.716 95.168 191.419 190.325 286.879 285.742 13.634 13.596 28.834 21.299 48.15 17.128 17.799-3.873 30.046-14.983 35.61-32.278 5.763-18.265 1.386-34.846-12.079-48.442-29.083-29.338-58.458-58.414-87.752-87.584-100.596-100.092-201.105-200.259-301.906-300.097-48.274-47.808-106.819-58.252-170.25-41.417-63.512 16.798-101.012 61.199-116.163 123.617-13.808 56.99 2.356 108.759 42.636 149.374 152.824 153.918 306.699 306.736 461.332 458.758 54.628 53.751 123.113 71.973 198.568 64.737 65.831-6.354 120.67-34.181 164.692-83.885 77.357-87.379 83.76-223.616 14.019-313.768-6.689-8.629-14.355-16.587-22.145-24.327-156.859-156.026-313.724-312.045-470.8-467.903-60.777-60.31-134.77-90.866-219.706-96.132-7.324-0.46-14.604-0.752-22.679-1.131z" />
<glyph unicode="&#xe90d;" glyph-name="close-icon" d="M1024.078 447.391c-1.457-283.627-232.003-513.142-513.713-511.377-287.42 1.794-516.74 236.98-510.228 524.322 6.204 274.739 230.737 500.808 513.601 499.659 281.402-1.115 509.157-228.097 510.34-512.604zM511.245 3.761c244.679-0.611 444.779 198.912 445.087 443.899 0.308 244.107-198.223 443.596-442.403 444.476-246.136 0.919-445.087-196.81-446.124-443.401-1.031-245.109 197.534-444.364 443.44-444.975zM512.623 397.181c-47.527-49.898-93.714-98.383-139.897-146.907-3.446-3.598-6.82-7.313-10.3-10.877-14.514-14.705-35.271-15.551-49.057-2.068-14.016 13.752-13.977 33.893 0.308 49.018 48.104 50.856 96.242 101.717 144.419 152.534 2.029 2.185 4.058 4.37 6.741 7.274-8.619 9.269-17.12 18.459-25.738 27.577-41.705 44.041-83.527 88.044-125.192 132.163-12.485 13.214-14.397 29.219-5.744 42.893 12.065 19.070 37.569 21.407 53.96 4.366 35.384-36.728 70.425-73.837 105.584-110.751 14.519-15.204 29.028-30.412 44.159-46.227 16.655 17.77 33.316 35.462 49.898 53.193 33.433 35.809 66.793 71.73 100.378 107.383 14.744 15.663 35.613 15.854 50.475 1.071 13.977-13.942 14.016-34.044-0.152-49.057-47.18-49.937-94.438-99.767-141.628-149.664-3.867-4.058-7.656-8.159-12.021-12.833 19.872-21.065 39.29-41.626 58.707-62.154 31.135-32.934 62.579-65.644 93.446-98.887 18.303-19.76 9.841-49.478-15.624-56.258-13.942-3.676-25.201 1.266-34.963 11.527-46.799 49.326-93.827 98.495-140.743 147.782-2.493 2.625-4.522 5.729-7.015 8.902z" />
<glyph unicode="&#xe90e;" glyph-name="emoji-icon" d="M0 448.759c0 283.155 230.172 512.033 515.454 511.241 280.438-0.753 510.816-231.468 508.731-516.039-2.046-279.938-232.008-510.486-516.998-507.936-279.146 2.501-507.687 230.836-507.187 512.734zM938.471 447.757c1.378 235.225-193.094 428.237-428.529 426.944-233.719-1.296-423.77-191.929-424.438-426.231-0.625-234.515 192.384-427.864 427.694-426.944 234.639 0.959 425.524 191.595 425.272 426.231zM511.988 149.158c-111.392 4.052-197.774 52.148-257.018 147.298-13.611 21.875-7.35 47.384 13.402 60.036 21.208 12.901 46.094 6.097 60.036-16.495 36.155-58.783 88.303-95.356 156.649-103.083 89.845-10.185 160.069 25.302 209.337 101.247 7.976 12.355 17.284 21.918 32.315 24.006 17.784 2.422 32.397-3.633 42.334-18.498 10.185-15.238 9.684-31.311 0.334-46.971-32.4-54.109-77.156-94.482-134.521-120.661-38.907-17.739-79.739-26.841-122.867-26.88zM362.562 618.56c35.906 0.082 63.754-27.639 63.96-63.711 0.17-35.405-28.555-64.464-63.711-64.379-35.071 0.082-64.297 29.183-64.379 64.17-0.124 35.323 28.476 63.839 64.13 63.921zM597.617 554.807c-0.167 35.196 27.806 63.502 62.962 63.796 36.073 0.334 65.299-28.349 65.132-63.921-0.17-35.071-29.311-64.173-64.34-64.212-35.196-0.042-63.672 28.683-63.754 64.336z" />
<glyph unicode="&#xe90f;" glyph-name="send-icon" horiz-adv-x="1327" d="M246.41-64c0 159.225 0 314.639 0 471.433 358.521 0 716.317 0 1080.742 0-362.943-158.315-720.128-314.126-1080.742-471.433zM246.503 489.11c0 155.796 0 311.19 0 470.89 359.103-156.696 716.669-312.717 1079.167-470.89-362.18 0-719.404 0-1079.167 0zM0 448.555c49.478 45.041 96.749 88.071 146.589 133.439 0-90.179 0-176.592 0-267.373-49.62 45.334-97.111 88.731-146.589 133.933z" />
<glyph unicode="&#xe910;" glyph-name="add-booking" d="M512.948 960c-281.754 0.665-512.23-229.111-512.945-511.387-0.714-281.483 229.158-511.742 511.746-512.611 281.746-0.869 512.319 229.172 512.619 511.434 0.298 282.419-228.664 511.895-511.42 512.564zM511.699-24.889c-260.139 0.553-472.699 213.349-472.538 473.068 0.159 259.927 212.716 472.407 472.893 472.723 259.627 0.314 472.954-212.019 473.201-470.997 0.253-262.296-212.243-475.349-473.555-474.794zM764.542 467.733c-47.239 0.037-94.479 0.006-141.72 0.004-29.825-0.002-59.648 0-90.632 0 0 4.512 0 8.162 0 11.813 0 50.299 0.004 100.599 0.004 150.898 0 22.771 0.020 45.54-0.029 68.311-0.033 15.864-6.832 24.468-19.397 24.711-12.896 0.249-19.797-8.437-19.889-25.035-0.008-1.361-0.002-2.719-0.002-4.080 0-69.666 0.024-139.334-0.051-209-0.006-5.608 0.738-11.366-1.295-17.62-6.491 0-12.557 0-18.624 0-69.67 0-139.34 0.014-209.010-0.037-4.051-0.002-8.208-0.039-12.133-0.896-9.314-2.038-15.277-9.861-15.138-19.083 0.137-9.163 6.379-16.847 15.687-18.634 3.957-0.761 8.098-0.773 12.156-0.777 70.69-0.043 141.378 0.004 212.068-0.108 5.263-0.008 10.793 1.281 15.942-1.55 0.139-2.199 0.381-4.223 0.381-6.248 0-48.594-0.037-97.192-0.045-145.79-0.004-27.187-0.182-54.377 0.118-81.56 0.173-15.805 14.816-25.272 28.083-18.577 8.657 4.363 11.24 11.911 11.217 21.123-0.114 47.578-0.053 95.16-0.053 142.74 0 29.511 0 59.022 0 89.901 38.715 0 76.059-0.004 113.407 0.002 39.761 0.006 79.525-0.039 119.288 0.065 15.607 0.041 24.297 8.494 22.947 21.876-1.144 11.325-9.267 17.539-23.279 17.551z" />
<glyph unicode="&#xe911;" glyph-name="message" horiz-adv-x="1442" d="M1441.752 811.582c-0.040 84.43-63.624 147.961-148.004 148.058-85.897 0.097-222.79 0.061-324.891-0.054v0.036h-55.943c-2.977 0.22-6.069 0.638-9.093 0l-56.902-0.025c-150.469 0.148-601.379 1.013-706.295-0.368-79.399-1.045-140.554-65.325-140.561-146.13-0.022-242.674-0.177-485.347 0.097-728.021 0.097-86.323 62.853-148.93 148.768-148.963 379.631-0.13 759.258-0.159 1138.889-0.047 93.462 0.029 153.875 60.809 153.929 154.697 0.141 240.277 0.119 480.547 0.007 720.816zM1384.071 84.26c-0.014-53.165-37.397-90.514-90.604-90.521-381.429-0.036-762.862-0.036-1144.292 0-54.404 0-91.307 36.885-91.329 91.538-0.094 242.674-0.083 485.351-0.050 728.025 0.007 50.505 38.233 88.6 88.824 88.64 73.885 0.054 147.77-0.007 221.651-0.014 39.523-0.004 475.505 0 514.314 0v0l86.276 0.054c101.435 0.011 236.896 0.036 321.871-0.025 57.104-0.040 93.333-36.204 93.344-93.257 0.047-241.481 0.047-482.958-0.004-724.439zM1134.405 621.546c54.376 47.679 109.317 94.713 163.624 142.472 16.327 14.359 17.707 29.19 5.961 41.931-11.461 12.427-27.611 12.229-43.257-1.067-50.501-42.918-101.201-85.605-151.19-129.118-37.591-32.718-73.849-66.965-111.321-99.827-91.632-80.365-183.62-160.319-276.92-241.704-4.408 3.489-7.742 5.932-10.863 8.625-145.405 125.604-290.793 251.234-436.191 376.845-34.077 29.439-68.046 59-102.347 88.172-13.746 11.688-31.41 10.809-41.869-1.060-10.838-12.301-9.169-28.39 4.437-41.548 3.882-3.752 8.008-7.259 12.099-10.791 182.708-157.742 365.42-315.481 548.146-473.205 21.315-18.396 30.891-18.464 52.516 0.375 58.412 50.88 116.788 101.802 174.984 152.934 70.825 62.218 141.311 124.818 212.19 186.968zM1299.41 113.821c-85.814 75.045-171.384 150.375-257.072 225.565-30.073 26.389-60.265 52.642-90.886 79.377-14.597-13.198-27.9-25.229-41.952-37.934 2.281-2.707 3.262-4.231 4.574-5.377 116.864-102.419 233.735-204.837 350.737-307.098 3.442-3.009 8.113-5.413 12.571-6.314 13.505-2.732 25.51 0.252 31.933 13.642 7.241 15.094 2.476 27.312-9.904 38.139zM473.811 407.482c-111.263-95.957-222.509-191.931-333.775-287.88-18.651-16.085-22.227-32.275-10.059-46.212 12.157-13.923 28.628-12.899 47.279 2.941 1.37 1.164 2.721 2.35 4.083 3.528 78.487 67.848 156.993 135.678 235.458 203.551 37.952 32.83 75.831 65.743 114.893 99.618-14.77 12.824-28.217 24.49-42.785 37.137-5.943-4.995-10.567-8.783-15.094-12.683z" />
<glyph unicode="&#xe912;" glyph-name="notification" horiz-adv-x="1154" d="M791.237 631.289c-32.218-19.805-64.548-39.431-96.634-59.449-100.83-62.908-201.495-126.086-302.484-188.737-8.579-5.323-11.234-10.565-9.46-20.304 12.048-66.164 23.657-132.406 35.402-198.624 3.009-16.961-2.675-29.411-15.539-34.074-12.951-4.695-24.11 0.145-33.246 14.79-40.509 64.948-81.044 129.879-121.274 194.997-4.533 7.338-9.993 11.839-18.218 14.422-59.073 18.552-117.979 37.64-177.077 56.123-18.109 5.664-32.189 15.88-42.91 31.438-23.49 34.091-0.77 71.567 26.339 81.948 244.838 93.763 487.425 193.175 730.543 291.253 115.222 46.483 230.246 93.45 345.277 140.401 11.44 4.668 22.441 7.702 32.882-1.1 10.524-8.869 10.308-20.202 8.041-33.003-17.353-97.947-34.154-195.99-51.096-294.010-16.602-96.040-33.166-192.088-49.744-288.13-16.505-95.645-33.006-191.298-49.514-286.943-2.876-16.665-5.187-33.456-8.765-49.969-13.375-61.719-90.34-87.265-138.55-46.628-75.283 63.456-150.937 126.468-226.452 189.65-1.177 0.988-2.568 1.727-4.538 3.033-26.133-24.25-52.137-48.339-78.098-72.475-26.017-24.187-51.985-48.433-77.992-72.63-11.309-10.524-22.099-12.888-32.817-7.287-10.924 5.715-14.887 15.992-13.278 30.898 6.27 58.133 12.244 116.301 18.301 174.458 3.3 31.683 6.5 63.378 9.841 95.059 0.955 9.051 6.851 15.057 13.126 20.985 108.868 102.857 217.668 205.792 326.471 308.72 1.168 1.105 2.2 2.355 3.292 3.537 0.758 1.010 2.602 1.96 0.477 3.208-0.344 0.201-1.517-1.003-2.306-1.555zM479.786 84.635c4.724 4.114 7.774 6.623 10.662 9.313 37.534 34.925 75.034 69.888 112.565 104.812 13.676 12.728 26.52 13.094 40.821 1.107 68.037-57.026 136.045-114.094 204.072-171.134 14.843-12.447 29.51-25.118 44.642-37.202 22.089-17.639 43.191-10.429 50.19 16.801 0.601 2.335 1.051 4.712 1.461 7.091 9.967 57.944 19.853 115.908 29.886 173.843 19.027 109.922 38.176 219.824 57.198 329.748 17.581 101.588 35.080 203.19 52.573 304.795 3.879 22.521 7.578 45.073 11.66 69.399-348.914-141.527-695.608-283.139-1044.457-419.267 1.090-12.021 10.638-12.317 17.673-14.599 63.107-20.466 126.26-40.797 189.58-60.59 11.549-3.61 19.589-9.664 25.823-19.962 19.061-31.494 38.777-62.586 60.096-96.818-0.744 7.445-0.896 11.406-1.563 15.275-4.651 26.986-9.465 53.945-14.119 80.928-3.22 18.666-0.337 24.96 15.679 34.975 160.203 100.173 320.414 200.337 480.612 300.517 54.31 33.963 108.58 67.989 162.895 101.946 8.53 5.332 16.963 11.553 27.957 8.307 9.499-2.805 16.193-8.629 18.613-18.712 3.053-12.719-3.069-21.477-11.759-29.689-171.66-162.195-343.225-324.494-514.943-486.63-5.388-5.088-8.048-10.57-8.77-17.743-6.178-61.368-12.51-122.718-19.047-186.511zM797.565 635.337c-0.313-0.228-0.623-0.458-0.935-0.686 0.257-0.288 0.497-0.775 0.783-0.807 0.283-0.029 0.618 0.402 0.928 0.63-0.257 0.288-0.516 0.577-0.775 0.862zM797.565 635.337c0.257-0.286 0.518-0.574 0.775-0.86-0.31-0.228-0.644-0.659-0.928-0.63-0.286 0.029-0.526 0.518-0.783 0.807 0.313 0.225 0.623 0.455 0.935 0.683zM791.237 631.289c0.79 0.552 1.962 1.754 2.309 1.55 2.125-1.248 0.279-2.197-0.477-3.208-0.611 0.555-1.221 1.105-1.832 1.657z" />
<glyph unicode="&#xe913;" glyph-name="quote" horiz-adv-x="881" d="M710.842 703.554c-5.234 0-9.213 0-13.191 0-44.464 0.002-88.928-0.1-133.394 0.040-38.579 0.122-66.317 27.747-66.522 66.466-0.233 44.464-0.060 88.928-0.062 133.392-0.002 4.006 0 8.013 0 11.308-3.364 3.095-6.474 2.085-9.298 2.088-139.324 0.051-278.648 0.051-417.972 0.036-18.992-0.002-27.28-8.051-27.282-26.924-0.036-224.172-0.013-448.344-0.009-672.514 0-27.049-0.044-54.098-0.013-81.146 0.024-21.751 7.012-28.832 28.338-28.836 140.066-0.018 280.133-0.022 420.199-0.053 15.421-0.004 24.219-5.563 26.624-16.57 3.435-15.701-6.834-27.26-24.725-27.3-49.651-0.118-99.306-0.060-148.96-0.060-92.267-0.004-184.533-0.113-276.798 0.060-33.859 0.060-59.254 20.301-66.517 52.466-1.045 4.629-1.212 9.536-1.214 14.314-0.051 253.444-0.064 506.895-0.018 760.346 0.009 42.116 26.382 69.132 68.191 69.183 145.62 0.18 291.238 0.018 436.859 0.153 15.739 0.013 28.607-5.378 39.684-16.488 64.363-64.545 128.857-128.957 193.353-193.37 10.167-10.154 15.841-22.16 15.848-36.609 0.047-94.489 0.076-188.977 0.038-283.468-0.004-13.222-6.212-21.84-16.824-24.152-9.683-2.11-19.761 2.71-24.183 11.563-2.775 5.554-2.214 11.555-2.214 17.444-0.002 84.112 0.040 168.223 0.067 252.335-0.002 5.109-0.004 10.216-0.004 16.299zM676.434 746.933c-45.438 45.5-90.462 90.593-135.678 135.878 0-38.121-0.316-76.784 0.193-115.437 0.151-11.515 9.124-20.105 21.057-20.259 38.328-0.489 76.666-0.182 114.427-0.182zM376.74 561.329c-62.608 0-125.219-0.027-187.828 0.020-13.996 0.011-22.524 6.248-24.492 17.533-2.603 14.95 6.957 25.742 23.934 26.024 23.334 0.389 46.676 0.225 70.017 0.22 101.874-0.013 203.751-0.047 305.628-0.093 16.148-0.007 26.264-8.691 26.122-22.289-0.14-13.182-9.969-21.446-25.55-21.448-62.608-0.004-125.219-0.002-187.825-0.002-0.004 0.011-0.004 0.022-0.004 0.036zM375.878 419.077c-62.228 0-124.454-0.033-186.68 0.024-15.016 0.013-23.981 7.179-24.957 19.552-1.161 14.747 8.2 24.134 24.943 24.236 35.557 0.218 71.115 0.151 106.672 0.156 88.523 0.016 177.049 0.009 265.57 0.002 17.649 0 27.358-6.826 28.363-19.883 1.127-14.645-8.451-24.074-25.008-24.112-47.036-0.091-94.077-0.022-141.123-0.018-15.928 0.004-31.853 0-47.781 0 0 0.013 0 0.029 0 0.042zM377.032 276.832c-62.6 0-125.201-0.060-187.801 0.040-16.735 0.027-26.18 9.331-25.012 24.010 0.98 12.326 9.912 19.772 24.903 19.83 45.56 0.176 91.12 0.098 136.683 0.093 79.266-0.002 158.538 0.013 237.803-0.069 14.44-0.013 23.376-5.918 25.699-16.399 3.413-15.396-6.519-27.342-23.365-27.442-34.446-0.2-68.894-0.1-103.342-0.113-28.523-0.013-57.044-0.002-85.564-0.002-0.004 0.013-0.004 0.031-0.004 0.053zM752.765 111.942c-7.29 0-14.392 0.249-21.464-0.042-34.626-1.425-69.156 27.671-73.736 64.091-2.69 21.402 4.738 39.84 19.129 55.441 14.947 16.204 33.439 24.792 55.776 24.401 6.717-0.122 13.435-0.022 20.535-0.022 0 2.908 0 5.498 0 8.084 0.004 13.362-0.087 26.726 0.042 40.086 0.073 8.086 6.045 14.629 13.867 15.617 7.697 0.976 14.961-3.782 17.311-11.279 0.658-2.077 0.616-4.186 0.616-6.303 0.011-15.216 0.007-30.43 0.007-45.558 1.412-1.078 2.83-0.62 4.135-0.62 19.603-0.036 39.21 0.024 58.813-0.044 11.824-0.042 19.63-10.114 16.301-20.824-2.105-6.759-8.142-11.168-15.565-11.185-19.73-0.038-39.459-0.011-59.189-0.011-1.356 0-2.71 0-4.284 0 0-26.633 0-53.044 0-79.99 6.581 0 13.158-0.262 19.703 0.058 13.604 0.656 26.28-2.492 37.856-9.416 20.301-12.144 33.703-29.519 37.374-53.246 3.402-21.997-4.124-40.862-18.86-56.897-14.912-16.23-33.439-24.785-55.774-24.39-6.714 0.122-13.427 0.018-20.512 0.018 0-3.668 0-7.012 0-10.35-0.004-12.608 0.091-25.228-0.042-37.836-0.082-8.084-6.067-14.623-13.887-15.603-7.702-0.96-14.961 3.806-17.3 11.306-0.649 2.077-0.607 4.189-0.607 6.303-0.007 15.216-0.007 30.428-0.007 45.551-1.436 1.052-2.848 0.603-4.16 0.607-24.85 0.033-49.698-0.004-74.545 0.038-10.358 0.016-17.446 6.912-17.193 16.577 0.227 8.802 7.184 15.421 16.401 15.436 24.848 0.038 49.698 0.013 74.543 0.013 1.492 0 2.986 0 4.713 0 0.002 26.573 0.002 52.982 0.002 79.99zM752.847 223.77c-7.971 0-15.794 0.020-23.616-0.004-23.614-0.067-38.305-13.664-40.189-37.185-1.53-19.112 8.624-35.451 25.519-40.613 12.531-3.829 25.408-1.632 38.288-2.221-0.002 26.893-0.002 53.282-0.002 80.024zM785.078 111.766c0-26.847 0-53.235 0-79.812 7.951 0 15.674-0.018 23.396 0.002 23.567 0.053 38.096 13.28 40.289 36.669 1.803 19.156-8.402 35.686-25.319 41.145-5.42 1.748-10.992 1.968-16.599 1.992-7.195 0.029-14.392 0.004-21.766 0.004z" />
<glyph unicode="&#xe914;" glyph-name="rental" horiz-adv-x="1086" d="M1063.828 134.273c-13.942 0-26.537 0-38.695 0-0.649-0.947-1.069-1.27-1.069-1.598-0.084-30.23-1.327-60.52 0.117-90.68 1.69-35.357-27.052-66.79-66.817-66.658-277.494 0.912-554.993 0.48-832.492 0.529-40.35 0.010-65.267 25.367-65.269 66.117-0.007 214.959 0.007 429.917-0.087 644.873-0.002 4.749 1.591 9.844-1.32 14.176-12.63 0-24.929 0-37.967 0-0.206-2.204-0.353-3.025-0.353-3.845-0.012-220.342-0.164-440.683 0.089-661.025 0.062-55.696 44.47-99.945 100.534-99.993 281.227-0.244 562.451-0.189 843.678-0.020 47.766 0.025 89.232 34.269 97.015 81.609 6.32 38.434 1.029 77.419 2.634 116.514zM19.979 810.457c-0.174-9.702-1.454-19.591 0.929-28.918 13.060 0 25.362 0 38.707 0 0 24.85 1.26 49.249-0.288 73.47-2.46 38.474 29.114 65.692 65.858 65.592 278.287-0.753 556.574-0.408 834.86-0.457 39.659-0.007 63.83-24.512 63.83-64.399-0.005-207.473-0.022-414.946-0.035-622.419 0-6.064 0-12.13 0-18.562 13.674 0 25.968 0 39.388 0 0.194 2.672 0.41 4.277 0.41 5.878 0.002 213.686-0.007 427.372-0.037 641.061-0.002 11.303-2.642 22.049-7.031 32.447-16.539 39.164-58.987 65.813-105.303 65.823-148.258 0.037-296.513 0.025-444.766 0.020-128.376-0.005-256.752 0.047-385.129-0.070-50.969-0.047-90.531-32.663-99.799-82.549-4.111-22.116-1.195-44.605-1.596-66.917zM975.384 264.197c12.975 0.149 21.015 7.786 21.273 19.29 0.278 12.284-7.679 19.847-21.455 20.344-2.48 0.087-4.965 0.015-7.448 0.017-140.28 0.027-280.561 0.055-420.839 0.075-47.999 0.010-96.001-0.010-144.003-0.020-15.704-0.002-24.889-7.056-25.222-19.362-0.345-12.747 9.009-20.292 25.406-20.483 1.655-0.020 3.313-0.015 4.968-0.015 93.104 0 186.21 0 279.316 0 72.417 0 144.831-0.010 217.247 0.002 23.585 0.002 47.174-0.122 70.757 0.152zM822.616 493.414c10.401 3.144 15.774 10.266 14.872 21.341-0.912 11.183-9.23 17.707-22.742 17.715-88.961 0.052-177.924 0.027-266.885 0.027 0 0.022 0 0.047 0 0.070-56.275 0-112.548 0-168.821 0-33.101 0-66.204-0.032-99.304 0.007-9.23 0.010-15.843-4.009-19.7-12.379-3.29-7.138-1.799-13.763 2.749-19.785 5.696-7.543 13.937-7.771 22.422-7.769 175.854 0.084 351.707 0.092 527.561 0.144 3.295 0 6.782-0.301 9.849 0.629zM526.030 602.144c14.829 0.022 23.291 7.428 23.291 19.822-0.002 12.396-8.542 19.849-23.232 19.857-113.897 0.060-227.795 0.082-341.692 0.047-16.492-0.005-25.642-7.59-25.337-20.513 0.293-12.307 9.233-19.216 25.277-19.231 56.742-0.047 113.482-0.017 170.225-0.017 57.155 0.002 114.31-0.047 171.467 0.035zM677.256 725.113c-8.703 8.681-21.167 8.949-28.891 1.389-8.318-8.139-8.46-19.621 0.462-28.645 25.618-25.923 51.382-51.702 77.342-77.283 10.607-10.453 19.949-10.843 30.339-0.539 49.702 49.289 99.103 98.884 148.583 148.392 5.291 5.294 7.938 11.497 6.029 19.146-4.339 17.389-21.87 21.532-35.524 7.96-41.712-41.466-83.217-83.138-124.83-124.706-3.151-3.149-6.471-6.129-12.091-11.427-4.257 5.425-7.689 10.634-11.936 15.065-16.333 17.039-32.775 33.978-49.486 50.646zM207.995-3.967c0 196.054 0 390.85 0 585.37-6.742 0-12.707 0-18.45 0 0-195.599 0-390.395 0-585.37 6.427 0 12.115 0 18.45 0zM1061.139 194.482c-39.758 0.050-79.519 0.017-119.278 0.020-40.589 0-81.175 0.045-121.763-0.020-15.794-0.027-24.738-7.257-24.812-19.74-0.075-12.635 8.75-19.939 24.544-19.946 80.347-0.047 160.696-0.042 241.043-0.007 16.835 0.005 25.56 7.14 25.252 20.366-0.296 12.801-8.606 19.31-24.986 19.328zM235.857 721.415c16.768 0.012 25.483 7.16 25.178 20.371-0.296 12.779-8.604 19.305-24.912 19.328-35.133 0.050-70.267 0.015-105.4 0.015-35.546 0-71.092 0.047-106.641-0.020-15.461-0.030-24.437-7.707-24.072-20.279 0.353-12.105 9.223-19.472 23.806-19.474 70.679-0.020 141.359 0.002 212.041 0.060zM827.708 393.657c-0.293 12.727-8.919 19.606-24.802 19.606-70.269 0-140.539-0.015-210.808-0.077-16.509-0.015-25.727-7.458-25.451-20.274 0.268-12.568 8.957-19.402 25.004-19.422 35.136-0.052 70.269-0.017 105.405-0.017 35.133-0.002 70.267-0.017 105.403 0.005 16.927 0.007 25.558 6.936 25.25 20.18zM347.192-3.54c0 159.131 0 317.471 0 476.087-6.417 0-12.098 0-18.485 0 0-159.588 0-317.928 0-476.087 6.713 0 12.677 0 18.485 0zM876.339 324.056c5.525 0 11.206 0 17.3 0 0 134.435 0 267.635 0 400.447-16.052-8.835-19.41-22.188-19.3-39.47 0.746-117.076 0.378-234.159 0.44-351.24 0.002-3.161-1.108-6.616 1.561-9.737zM597.078 900.024c0-116.477 0-231.756 0-346.886 6.688 0 12.655 0 18.52 0 0 116.025 0 231.299 0 346.886-6.409 0-12.093 0-18.52 0zM486.361-3.53c0 82.939 0 165.085 0 247.43-6.422 0-12.105 0-18.453 0 0-83.391 0-165.533 0-247.43 6.745 0 12.709 0 18.453 0zM615.585-3.982c0 83.376 0 165.508 0 247.415-6.732 0-12.685 0-18.47 0 0-82.909 0-165.038 0-247.415 6.419 0 12.101 0 18.47 0zM754.745-3.52c0 82.919 0 165.063 0 247.443-6.442 0-12.125 0-18.465 0 0-83.401 0-165.543 0-247.443 6.715 0 12.685 0 18.465 0zM328.707 900.017c0-80.051 0-158.872 0-237.504 6.723 0 12.677 0 18.497 0 0 79.596 0 158.42 0 237.504-6.399 0-12.083 0-18.497 0zM467.71 899.734c0-79.398 0-158.214 0-237.512 6.216 0 11.902 0 18.488 0 0 78.873 0 157.997 0 237.512-6.186 0-12.143 0-18.488 0zM754.071 899.992c-5.629 0-11.313 0-17.722 0 0-70.369 0-139.604 0-210.421 12.481 9.809 20.018 18.743 19.611 35.35-1.332 54.212-0.467 108.48-0.564 162.724-0.005 3.991 1.185 8.216-1.325 12.347zM486.384 324.071c0 50.134 0 99.143 0 148.081-6.688 0-12.65 0-18.555 0 0-49.747 0-98.757 0-148.081 6.367 0 12.048 0 18.555 0zM875.494 134.549c0-46.978 0-92.674 0-138.056 6.762 0 12.712 0 18.393 0 0 46.526 0 92.214 0 138.056-6.464 0-12.148 0-18.393 0zM208.035 781.778c0 39.811 0 78.871 0 118.249-6.392 0-12.068 0-18.52 0 0-40.265 0-79.323 0-118.249 6.698 0 12.65 0 18.52 0zM894.105 899.736c-6.524 0-12.476 0-18.898 0 0-26.468 0-52.366 0-79.413 6.944 1.307 12.873 2.423 18.898 3.556 0 25.473 0 50.5 0 75.856zM736.284 552.664c6.389 0 12.053 0 18.388 0 0 15.381 0 29.547 0 45.325-6.345-4.309-12.573-4.252-18.388-5.89 0-13.234 0-26.187 0-39.435zM207.903 662.654c0 13.4 0 25.983 0 38.784-6.812-0.301-12.908 1.193-18.652-0.974 0-12.975 0-25.232 0-39.376 7.19 1.687 13.365-0.87 18.652 1.566zM596.926 472.329c0-13.097 0-25.66 0-38.725 6.188 0 11.845 0 18.848 0 0 13.139 0 25.707 0 38.725-6.464 0-12.404 0-18.848 0zM736.222 472.498c0-13.567 0-26.13 0-38.717 6.631 0 12.575 0 18.604 0 0 13.246 0 25.809 0 38.717-6.332 0-11.999 0-18.604 0zM346.859 581.835c-6.3 0-11.966 0-18.863 0 0.529-10.587-1.183-19.944 1.111-29.373 6.529 0.358 12.622-1.198 18.743 1.034-0.472 9.851 1.235 19.211-0.992 28.339zM615.515 324.533c0 10.092 0 19.355 0 28.712-6.469 0-12.135 0-18.328 0 0-10.545 0-19.81 0-28.712 6.782 0 12.727 0 18.328 0zM754.369 353.541c-6.588-0.408-12.712 1.277-18.736-1.223 0.425-9.802-1.31-19.163 1.004-28.128 6.335 0 11.994 0 18.691 0-0.167 10.010 1.133 19.598-0.959 29.35zM894.046 215c0 9.854 0 19.109 0 28.804-6.228 0-11.894 0-18.714 0 0-10.033 0-19.285 0-28.804 6.554 0 12.491 0 18.714 0zM468.157 552.892c6.556 0 12.205 0 18.371 0 0 9.752 0 19.007 0 28.806-6.407 0-12.347 0-19.26 0 0.189-10.053-1.084-19.626 0.89-28.806z" />
<glyph unicode="&#xe915;" glyph-name="resources" horiz-adv-x="911" d="M835.404 727.742c1.5-11.137-3.707-18.005-14.135-23.937-113.406-64.508-226.519-129.533-339.713-194.414-1.496-0.856-3.050-1.608-4.509-2.517-12.753-7.929-23.173-9.666-38.644-0.694-116.435 67.506-233.843 133.327-351.013 199.555-5.899 3.334-10.716 7.005-13.41 13.534-6 14.562-2.739 25.456 10.917 33.288 117.949 67.655 235.975 135.182 353.829 203.011 10.507 6.048 19.381 5.828 29.817-0.176 118.457-68.159 237.040-136.102 355.74-203.839 9.672-5.52 12.436-13.099 11.12-23.809zM137.902 732.329c2.093-1.438 3.41-2.476 4.85-3.315 102.306-59.672 204.668-119.25 306.819-179.188 5.797-3.402 9.214-1.662 13.787 1.015 58.835 34.438 117.711 68.797 176.589 103.151 44.292 25.845 88.609 51.656 133.505 77.826-2.335 1.51-3.966 2.681-5.7 3.669-101.999 58.103-204.053 116.114-305.905 174.484-5.787 3.319-9.276 1.597-13.851-1.015-66.366-37.885-132.774-75.707-199.182-113.526-36.769-20.939-73.556-41.851-110.913-63.103zM508.854 168.459c0 68.013 0.232 136.023-0.203 204.034-0.087 13.399 4.971 21.65 16.468 28.209 116.35 66.377 232.511 133.085 348.734 199.681 3.28 1.879 6.566 3.872 10.076 5.213 12.85 4.902 25.738-3.069 27.078-16.66 0.303-3.079 0.137-6.208 0.137-9.313 0.004-135.331-0.131-270.664 0.222-405.99 0.035-12.715-4.567-20.141-15.461-26.341-117.885-67.16-235.555-134.705-353.278-202.147-1.792-1.028-4.055-1.761-5.194-3.303-4.397-5.936-10.921-7.239-16.368-4.403-6.114 3.185-11.665 8.474-11.957 16.644-0.135 3.792-0.255 7.587-0.255 11.383-0.002 67.659 0.002 135.325 0.002 202.992zM548.705-1.251c2.754 1.481 3.928 2.068 5.053 2.727 102.066 59.5 204.101 119.056 306.272 178.373 5.35 3.104 6.678 6.649 6.67 12.367-0.133 114.98-0.091 229.96-0.17 344.947-0.002 2.457 1.345 5.474-2.012 7.772-3.164-1.728-6.464-3.46-9.705-5.304-99.059-56.413-198.061-112.929-297.28-169.058-7.086-4.011-9.027-8.344-9.013-16.087 0.259-107.733 0.176-215.461 0.176-323.194 0.008-10.318 0.008-20.641 0.008-32.544zM402.53 169.244c0.002-68.718-0.122-137.436 0.141-206.15 0.037-9.777-2.928-17.369-10.231-23.67-4.614-3.982-10.335-4.415-14.419-1.521-32.913 23.326-69.097 41.066-103.833 61.232-85.192 49.451-170.753 98.268-256.405 146.917-12.562 7.134-17.825 16.041-17.779 30.679 0.408 133.284 0.238 266.572 0.24 399.866 0 2.072-0.025 4.144 0.004 6.214 0.303 21.086 15.131 29.993 33.364 19.744 22.516-12.657 44.839-25.663 67.251-38.505 95.931-54.96 191.799-110.034 287.898-164.707 9.972-5.665 13.998-12.564 13.94-23.95-0.35-68.718-0.174-137.436-0.172-206.15zM45.297 545.96c-0.259-3.464-0.491-5.143-0.491-6.823-0.021-117.336 0.041-234.672-0.18-352.004-0.010-6.191 2.395-9.021 7.353-11.901 100.877-58.669 201.643-117.535 302.491-176.252 2.335-1.355 4.374-4.654 7.929-2.731 0.112 0.858 0.276 1.542 0.276 2.221 0.017 118.372-0.064 236.74 0.242 355.108 0.021 7.098-3.719 9.425-8.501 12.21-85.662 49.909-171.304 99.857-256.952 149.791-16.878 9.838-33.766 19.665-52.167 30.381z" />
<glyph unicode="&#xe916;" glyph-name="subscriptions" horiz-adv-x="1131" d="M163.877 215.468c15.811 0 31.235-0.143 46.653 0.073 5.961 0.082 7.279-4.498 9.595-8.23 62.137-100.077 149.033-168.635 261.513-203.92 256.023-80.312 531.183 77.998 590.869 338.874 50.901 222.482-62.359 446.35-269.631 532.444-174.346 72.414-338.803 47.144-485.44-72.739-89.247-72.962-140.337-169.552-159.272-283.151-0.187-1.119-0.291-2.257-0.371-3.39-0.237-3.388-0.439-6.78-0.676-10.501 23.24 23.518 46.23 46.783 68.81 69.629 12.719-12.514 23.374-23.001 34.505-33.954-44-42.4-88.337-85.124-131.438-126.655-41.356 39.977-85.438 82.589-128.994 124.696 11.968 11.536 22.924 22.098 35.779 34.489 22.808-23.197 47.329-48.139 72.462-73.702 19.486 156.419 91.932 280.817 220.58 370.476 96.257 67.083 204.385 95.929 321.477 89.122 270.587-15.734 479.028-240.653 481.124-506.068 2.064-261.235-189.757-477.090-440.885-511.841-258.644-35.797-456.441 122.68-526.66 274.35zM861.982 328.733c-8.116-13.75-15.563-26.362-23.556-39.9-18.182 10.655-35.98 21.044-53.734 31.499-60.141 35.415-120.18 71.003-180.519 106.080-6.953 4.039-8.994 8.396-8.978 16.032 0.212 107.604 0.123 215.206 0.127 322.81 0 1.859 0.237 3.718 0.425 6.471 15.119 0 30.034 0 45.383 0 2.469-3.429 1.065-7.713 1.069-11.675 0.096-95.479 0.239-190.96-0.164-286.439-0.046-10.207 2.703-15.959 11.804-21.283 65.129-38.107 129.863-76.885 194.719-115.458 4.18-2.485 8.321-5.042 13.422-8.137z" />
<glyph unicode="&#xe917;" glyph-name="export" d="M605.187 959.997c0-21.896 0-42.479 0-63.997-3.534 0-6.776 0-9.997 0-187.322 0-308.154 0-495.476-0.020-18.678 0-31.106-8.917-34.876-25.051-0.828-3.494-0.805-7.264-0.805-10.905-0.023-274.994-0.043-549.968-0.023-824.962 0-21.813 13.109-35.069 34.623-35.069 275.649 0 551.321 0 826.97 0.043 21.305 0 34.37 13.425 34.37 35.238 0 186.351 0 306.166 0 492.494 0 4.279 0 8.534 0 13.279 21.494 0 42.31 0 64.017 0 0-3.451 0-6.669 0-9.911 0-188 0.020-309.511 0-497.468 0-55.482-42.353-97.666-98.005-97.666-275.991 0-551.976 0-827.967 0-55.738 0-98.005 42.14-98.005 97.622-0.020 275.626-0.020 551.298 0 826.97 0 57.683 41.612 99.381 99.212 99.381 187.326 0.043 308.174 0.020 495.5 0.020 3.262 0 6.546 0 10.463 0zM737.084 895.834c0 22.152 0 42.945 0 64.166 95.82 0 191.006 0 286.916 0 0-95.887 0-191.328 0-287.318-20.819 0-41.356 0-62.979 0 0 58.361 0 116.829 0 175.766-173.708-173.711-346.671-346.657-519.111-519.095-16.54 16.623-31.192 31.382-46.462 46.758 171.909 171.906 344.769 344.769 519.727 519.723-61.134 0-119.432 0-178.090 0z" />
<glyph unicode="&#xe918;" glyph-name="import" d="M671.681 959.997c0-21.896 0-42.479 0-63.997-3.534 0-6.776 0-9.997 0-187.322 0-374.648 0-561.973-0.020-18.678 0-31.106-8.917-34.876-25.051-0.828-3.494-0.805-7.264-0.805-10.905-0.020-274.994-0.043-549.968-0.020-824.962 0-21.813 13.109-35.069 34.623-35.069 275.649 0 551.321 0 826.97 0.043 21.305 0 34.37 13.425 34.37 35.238 0 186.351 0 372.66 0 558.988 0 4.279 0 8.534 0 13.279 21.494 0 42.31 0 64.017 0 0-3.451 0-6.669 0-9.911 0-188 0.020-376.004 0-563.961 0-55.482-42.353-97.666-98.005-97.666-275.991 0-551.979 0-827.967 0-55.738 0-98.005 42.14-98.005 97.622-0.020 275.626-0.020 551.298 0 826.97 0 57.683 41.612 99.381 99.208 99.381 187.326 0.043 374.671 0.020 561.996 0.020 3.262 0 6.546 0 10.463 0zM676.362 379.050c0-22.152 0-42.945 0-64.166-95.82 0-191.009 0-286.916 0 0 95.887 0 191.328 0 287.318 20.816 0 41.356 0 62.979 0 0-58.361 0-116.829 0-175.766 173.708 173.711 346.674 346.657 519.111 519.095 16.54-16.623 31.192-31.382 46.462-46.755-171.909-171.909-344.769-344.769-519.727-519.727 61.134 0 119.432 0 178.090 0z" />
<glyph unicode="&#xe919;" glyph-name="buddypress_icon" d="M1024.056 458.629c-5.413 279.549-234.606 502.136-512.047 501.371-281.378 0.915-516.246-229.791-511.953-520.165 4.125-279.363 234.27-508.351 520.949-503.76 277.926 4.461 508.631 233.524 503.051 522.554zM678.697 776.365c57.578-33.315 86.209-99.236 71.278-165.232-12.206-53.939-65.063-106.385-110.696-109.819 64.353 109.856 1.139 244.274-111.928 272.252 32.401 24.786 98.602 33.315 151.346 2.8zM632.485 594.13c-0.168-82.831-67.172-149.275-150.562-149.256-82.29 0.019-149.331 66.948-149.648 149.424-0.317 83.111 67.097 150.282 150.749 150.226 82.887-0.075 149.629-67.209 149.461-150.394zM351.48 445.228c17.227 2.8 28.687-1.418 40.613-13.942 29.34-30.796 60.229-60.135 94.197-93.712 22.191 23.685 43.282 46.511 64.764 69.001 10.956 11.46 22.994 21.874 33.689 33.558 5.599 6.103 11.404 7.204 18.963 6.383 74.6-7.97 132.701-56.571 153.866-128.894 10.862-37.16 14.297-86.601 8.548-125.179-188.581 0-377.255 0-566.564 0-3.098 11.478-3.042 23.386-3.266 35.032-0.709 38.168 3.658 75.682 17.88 111.48 24.842 62.431 71.95 95.634 137.311 106.273zM673.696 458.536c8.1 9.313 15.715 18.589 23.927 27.305 4.759 5.058 11.702 3.658 17.712 3.416 54.536-2.202 95.149-27.063 120.849-75.421 20.138-37.907 26.615-79.079 27.959-121.353 0.187-6.14 1.866-12.318-0.093-19.747-21.688-1.717-43.002-1.549-64.297-0.093-11.404 82.737-38.653 154.277-126.057 185.893z" />
<glyph unicode="&#xe91a;" glyph-name="call_icon" horiz-adv-x="945" d="M762.607-63.814c-79.479 2.457-155.758 20.437-229.085 50.371-191.059 77.993-331.933 211.662-429.951 391.739-52.745 96.903-85.218 200.659-98.43 310.195-5.182 43.043-7.845 86.292-1.115 129.602 1.982 12.737 8.299 23.245 15.276 33.402 28.323 41.308 65.895 72.79 108.504 98.182 25.33 15.091 52.023 12.077 78.282 0.908 17.816-7.576 33.939-18.084 49.731-29.005 10.239-7.081 14.76-18.765 19.323-29.872 18.105-44.075 27.807-90.441 36.849-136.931 3.53-18.187 5.553-36.684 9.125-54.872 3.22-16.35-0.908-30.615-9.806-43.951-10.57-15.855-23.988-29.211-37.84-42.114-15.111-14.059-30.243-28.117-45.953-41.494-5.45-4.645-6.131-8.381-3.757-14.76 20.004-53.509 49.071-101.981 82.121-148.182 61.457-85.858 138.541-155.118 227.372-211.559 25.949-16.494 26.238-15.958 49.401 4.294 19.921 17.444 39.905 34.785 61.54 50.144 21.139 15.008 43.084 20.21 68.847 12.386 55.842-16.949 111.312-34.517 164.181-59.723 24.69-11.767 42.795-28.179 52.601-54.5 8.691-23.328 18.043-46.057 14.409-71.717-1.672-11.788-5.347-22.915-12.572-32.287-31.812-41.288-68.992-76.424-116.060-100.226-16.804-8.505-34.475-10.962-52.993-10.033z" />
<glyph unicode="&#xe91b;" glyph-name="share_icon" horiz-adv-x="915" d="M846.912 259.689c-74.823 60.459-185.921 59.987-261.322-31.73-78.982 47.381-158.093 94.847-237.418 142.442 1.458 3.795 2.401 6.453 3.495 9.026 19.145 45.408 19.317 90.924 0.172 136.246-3.366 7.954-1.93 11.491 5.424 15.844 68.155 40.456 136.053 81.362 204.037 122.118 8.19 4.91 16.422 9.712 24.505 14.493 73.451-88.973 179.918-92.317 253.497-37.218 75.273 56.364 97.162 154.126 52.805 232.808-46.759 82.927-141.97 117.358-227.899 83.184-75.037-29.843-151.082-133.759-98.62-246.572-10.098-8.083-228.499-138.819-237.482-142.163-74.308 91.502-190.723 93.26-266.125 25.534-75.595-67.898-82.948-177.817-17.001-253.668 31.73-36.511 71.65-59.215 119.974-63.782 67.662-6.389 121.281 21.504 164.096 72.765 79.497-47.702 158.414-95.061 237.225-142.356-49.953-109.769 16.122-210.854 93.175-245.157 83.591-37.218 179.682-5.81 230.043 76.495 45.88 75.016 26.756 175.673-42.578 231.693zM588.849 806.195c9.047 49.096 35.482 83.977 77.846 103.165-42.364-19.188-68.798-54.070-77.846-103.165-4.395-15.565-4.481-31.087-2.144-46.544 0.386-2.573 0.858-5.145 1.372-7.74-0.515 2.573-0.986 5.145-1.372 7.74-2.358 15.458-2.251 30.958 2.144 46.544zM328.384 464.755c0.193-1.351 0.343-2.701 0.472-4.052-0.129 1.351-0.3 2.701-0.472 4.052zM39.963 478.133c6.925 38.505 26.091 67.919 55.849 88.801-29.736-20.882-48.924-50.296-55.849-88.801-4.374-18.159-5.188-36.275-1.243-54.327-3.923 18.052-3.13 36.168 1.243 54.327zM688.648 259.26c-3.645-1.072-7.246-2.273-10.784-3.645 3.516 1.372 7.118 2.594 10.784 3.645zM588.527 147.948c7.461 46.995 40.627 86.893 84.063 105.545-43.436-18.652-76.624-58.55-84.063-105.545-3.559-15.586-4.352-31.13-2.015-46.587-2.337 15.479-1.544 31.001 2.015 46.587z" />
<glyph unicode="&#xe91c;" glyph-name="at_icon" horiz-adv-x="1020" d="M606.709 316.306c-6.436-3.415-7.381-8.537-9.719-12.477-29.709-49.646-69.662-87.262-125.009-106.805-103.495-36.512-196.799 12.845-221.806 119.65-29.656 126.664 22.695 312.588 199.504 381.777 102.734 40.216 205.651 31.889 307.098-7.854 8.879-3.467 10.796-7.828 8.931-17.573-16.995-88.864-33.544-177.807-49.541-266.829-4.019-22.38-5.017-45.154-1.602-67.981 5.831-38.982 32.467-56.817 70.555-46.862 32.099 8.406 55.793 28.343 74.653 54.611 26.977 37.563 39.376 80.511 45.154 125.744 8.642 67.456 4.36 133.835-21.067 197.456-42.817 107.12-124.799 167.536-234.887 193.2-236.279 55.136-427.641-95.904-495.806-262.285-51.275-125.166-54.322-251.909 4.676-375.315 53.718-112.348 146.181-176.31 268.773-194.802 95.352-14.369 186.318 2.285 271.925 47.072 1.918 0.998 3.888 1.839 7.224 3.415 10.691-26.925 21.251-53.481 32.152-80.958-30.129-16.68-61.178-30.392-94.091-39.087-129.474-34.227-258.344-36.171-382.933 18.204-134.702 58.787-216.053 164.621-246.55 306.625-35.856 167.090-4.912 322.937 97.296 461.395 82.796 112.137 196.063 177.361 332.446 202.21 97.375 17.757 194.514 15.603 289.235-15.419 148.203-48.543 240.981-149.701 274.578-301.87 21.75-98.504 14.999-196.116-28.579-288.552-37.353-79.198-97.848-132.232-184.689-151.644-35.777-7.985-72.158-10.323-107.541 2.233-48.412 17.205-69.531 55.583-77.516 103.443-1.024 5.989-1.812 12.057-2.863 19.281zM406.758 424.714c0.394-7.197 0.368-15.524 1.445-23.746 0.946-7.329 2.627-14.631 4.833-21.697 8.852-28.29 30.681-44.655 59.392-44.366 19.543 0.184 35.068 9.693 48.543 22.853 23.326 22.774 38.325 50.802 49.016 81.115 19.097 54.112 26.189 111.139 39.691 166.617 2.075 8.537-3.572 9.115-9.22 10.691-51.905 14.395-96.745 2.495-133.94-36.539-40.952-43.027-57.973-95.457-59.759-154.928z" />
<glyph unicode="&#xe91d;" glyph-name="pinterest" d="M841.6 960c-217.6 0-438.4 0-656 0-60.8 0-121.6 0-182.4 0 0-60.8 0-121.6 0-182.4 0-217.6 0-438.4 0-656 0-60.8 0-121.6 0-182.4 60.8 0 121.6 0 182.4 0 217.6 0 438.4 0 656 0 60.8 0 121.6 0 182.4 0 0 342.4 0 681.6 0 1024-60.8-3.2-121.6-3.2-182.4-3.2zM835.2 339.2c-67.2-195.2-275.2-265.6-416-217.6 19.2 54.4 38.4 108.8 60.8 166.4 19.2-22.4 48-35.2 80-32 38.4 0 76.8 16 102.4 44.8 64 64 83.2 137.6 60.8 224-22.4 80-80 124.8-163.2 137.6-108.8 16-208-25.6-249.6-121.6-25.6-60.8-22.4-118.4 9.6-172.8 12.8-19.2 25.6-35.2 51.2-41.6 9.6 25.6 12.8 48 0 73.6-44.8 89.6 19.2 195.2 118.4 204.8 121.6 9.6 192-86.4 150.4-208-12.8-41.6-35.2-73.6-80-83.2s-76.8 22.4-64 67.2c6.4 32 19.2 60.8 25.6 92.8 6.4 28.8-3.2 51.2-25.6 60.8s-51.2-3.2-64-28.8c-16-28.8-16-57.6-9.6-89.6 3.2-9.6 3.2-22.4 0-32-9.6-44.8-22.4-86.4-28.8-131.2-6.4-38.4-9.6-76.8-12.8-112-121.6 38.4-249.6 204.8-198.4 396.8 48 188.8 243.2 297.6 428.8 240 185.6-60.8 284.8-259.2 224-438.4z" />
</font>
</defs>
</svg>
