<?xml version="1.0" standalone="no"?>
<!DOCTYPE svg PUBLIC "-//W3C//DTD SVG 1.1//EN" "http://www.w3.org/Graphics/SVG/1.1/DTD/svg11.dtd" >
<svg xmlns="http://www.w3.org/2000/svg">
<metadata>Generated by IcoMoon</metadata>
<defs>
<font id="mvx-font" horiz-adv-x="1024">
<font-face units-per-em="1024" ascent="960" descent="-64" />
<missing-glyph horiz-adv-x="1024" />
<glyph unicode="&#x20;" horiz-adv-x="0" d="" />
<glyph unicode="&#xe900;" glyph-name="addcoupon-icon" d="M993 394q-69 70-139 139l-139.5 139.5t-138.5 139.5q-70 69-139 139-5 4-10 6.5t-12 2.5h-323q-42 0-67-25t-25-67v-321q0-8 2.5-13.5t7.5-11.5q27-26 53-52.5t53-52.5q-71-49-100-115.5t-7-151.5q19-70 66-112.5t118-55.5q79-14 140 16t106 96l128-128q30-30 65-30t65 30l296 296q31 31 31 66t-31 66v0zM234 21q-79 0-135 56.5t-56 135.5 56.5 135.5 136.5 56.5q79 0 135-56.5t56-135.5q0-80-56.5-136.5t-136.5-55.5v0zM963 295l-74-74q-37-38-74-75.5t-74-74.5q-38-37-75-75-17-17-34-17t-34 17q-33 33-66 66.5t-66 66.5q-5 5-6 9.5t1 11.5q16 59 3 114-13 56-48 98t-87 66-113 19q-12-1-23.5-3t-22.5-5q-5-3-9-1.5t-8 5.5q-26 26-51.5 52t-51.5 52q-4 4-5.5 8t-1.5 10v304q0 23 12.5 35.5t35.5 12.5h304q6 0 10-2t9-6q68-68 137-136t137.5-136.5 137.5-136.5l138-136q17-17 17-34t-18-35v0zM234 832q-44 0-75-31.5t-31-76.5q0-44 32-75t76-31 75 31.5 31 76.5q0 44-31.5 75t-76.5 31v0zM236 661q-27 0-46 18.5t-19 45.5q0 26 19 45t46 19q26 0 44.5-19t18.5-45-18.5-45-44.5-19v0zM256 361h-43v-127h-127v-43h128v-127h43v128h127v42h-128v127z" />
<glyph unicode="&#xe901;" glyph-name="add-icon" d="M511-64q-106 0-199 40-93 41-162.5 110.5t-109.5 163.5-40 201q0 105 41 198 40 93 110 162t164 109 200 40q105 0 198-41 93-40 162-110t109-164 40-200q0-105-41-198-40-92-110-161.5t-163-109.5-199-40v0zM513 922q-98 0-184-37t-150.5-101-102.5-149q-38-86-38-183 0-99 37-186t101-151.5 150-102.5 184-38 184 37q87 37 151.5 101t102.5 150 38 184-37 185q-37 86-101 151t-151 102q-86 38-184 38v0zM493 467v225q0 9 4.5 14.5t11.5 6.5 12-1.5 8-8.5q2-4 2-8v-226q2-2 5-2h219.5t7.5-1q7-1 10.5-6t4.5-11q0-7-4.5-12.5t-10.5-6.5q-5-1-9.5-1h-220.5q-2-3-2-5v-219.5t-1-6.5q-1-7-6-11.5t-12-4.5-12 4.5-6 11.5q-1 5-1 10v219q-3 2-5.5 2h-214.5q-13 0-19.5 4.5t-7.5 13.5q0 10 7 15t20 5h220z" />
<glyph unicode="&#xe902;" glyph-name="add-product-icon" horiz-adv-x="919" d="M487 189v187q-1 35 15 59t44 40q26 14 52.5 27.5t52.5 27.5l60 32t61 32q15 8 30.5 15.5t31.5 16.5q9 4 18.5 6.5t19.5 2.5q22-2 34.5-16t12.5-38v-385q1-36-15-60.5t-46-40.5q-70-37-141-74l-142-74q-8-4-16.5-7t-18.5-4q-24 0-38.5 13.5t-14.5 38.5v201zM887 381v202q0 12-5 16t-17 3q-6 0-11-2.5t-11-4.5q-36-19-72.5-38.5t-72.5-38.5q-34-18-69-36t-69-36q-20-11-30.5-27.5t-10.5-40.5q1-67 0.5-133t-0.5-132v-124q0-13 7-18t20-2q4 1 8.5 3t8.5 5q43 22 86 44.5t86 45.5q26 15 53.5 28.5t54.5 28.5q21 11 33 28t11 43q-1 46-0.5 92.5t0.5 93.5v0zM433 188v-197q0-31-20-46t-50-6q-6 2-12 5l-12 6q-70 36-139.5 72.5t-138.5 73.5q-30 15-45.5 39.5t-15.5 59.5v96q1 49 0.5 97t-0.5 96v96q0 25 13 39.5t36 15.5q11 0 20.5-3t18.5-8q43-22 86-44.5t85-44.5q29-15 57-30l56-30q24-12 39.5-30.5t20.5-45.5q0-4 0.5-8t0.5-8v-195zM33 382v-194q0-12 3.5-22t10.5-19q6-8 14-14t16-10q38-20 75-39.5t75-39.5q33-17 67-35l68-36q19-9 28.5-3.5t9.5 26.5v284t1 94q0 27-11.5 44.5t-33.5 29.5q-70 36-140 73l-140 74q-4 2-7.5 3.5t-7.5 2.5q-14 4-21-1t-7-19v-199zM458 960q16 0 32-3.5t31-11.5l78-38q39-20 78-39l78-38t78-39q15-7 25.5-17.5t11.5-27.5q2-18-7-30t-23-20q-39-20-78.5-40t-78.5-40q-41-21-82.5-42t-83.5-42q-33-16-66-16.5t-66 15.5l-78 38q-40 19-79 38.5t-78 38.5-78 39q-12 6-22 14.5t-13 22.5q-4 14 0.5 28t19.5 25q12 8 25 13.5t25 12.5l284 144q15 8 32 11.5t35 3.5v0zM436 548q21-1 36 1.5t28 9.5q14 7 28 14.5t28 14.5q21 10 41.5 20.5t41.5 20.5l90 46t91 46q6 4 12.5 8.5t5.5 13.5q0 8-6 12l-12 8q-18 8-35 16.5t-35 16.5q-34 17-67.5 33.5t-67.5 33.5q-27 13-54 26.5t-54 26.5q-26 13-52 13t-51-13q-40-20-79-40t-78.5-40-78.5-40q-40-20-79-40-7-4-14.5-8.5t-7.5-14.5q0-9 7.5-13.5t15.5-7.5q36-19 73-37 36-18 73-36t73-36q37-18 73-36 15-7 29-13.5t25-5.5v0z" />
<glyph unicode="&#xe903;" glyph-name="all-bookings-icon" horiz-adv-x="1023" d="M470 840q-53 10-105 18.5t-106 4.5q8-8 16-13l16-10q16-9 33.5-16.5t34.5-15.5q10-4 13.5-10t0.5-13q-4-8-10.5-10t-15.5 1q-27 12-53 24t-49 30q-5 3-9 7.5t-8 9.5q-8 12-5 24t16 19q8 4 16.5 5.5t17.5 2.5q39 2 77-2.5t75-11.5q71-14 140-33.5t136-46.5q24-10 46-20.5t43-25.5q7-5 13-10.5t10-13.5q7-11 4-21.5t-14-17.5q-8-5-17-7t-18-2q-8 0-12.5 4t-5.5 11q-1 8 3.5 13t12.5 6q3 0 6.5 0.5t7.5 2.5q-13 11-27 18.5t-28 14.5q-10-19-9.5-37.5t12.5-36.5q12-17 31.5-24.5t39.5-2.5q21 5 34 18t17 34q7 32-12 56t-52 26q-9 1-14.5 7t-4.5 12q0 8 6.5 12t15.5 4q42-3 70-33.5t27-72.5q0-36-26-65t-62-33q-40-6-72.5 17t-40.5 59q-5 19-3 37.5t12 35.5q-16 8-32.5 14t-33.5 12q-28 9-56.5 17.5t-56.5 15.5q-5 2-7.5 0.5t-5.5-3.5q-31-32-62.5-63.5t-63.5-62.5q-40-40-80-81-41-40-81-80l-80-80q-41-40-81-81-20-20-20-40.5t20-40.5l304-304q20-20 41.5-20t41.5 20q62 62 124 125 63 62 125 124.5t125 124.5q62 63 124 125 16 16 28.5 34.5t17.5 41.5q1 6 2 12.5t1 12.5v283q0 21-14.5 36t-35.5 15h-282q-28 0-52-11.5t-43-31.5l-8-6t-9-2q-5 0-9 2.5t-6 7.5q-1 4-1 9t4 8q21 23 46 37.5t56 18.5q10 1 19.5 1.5t19.5 0.5h265q35 0 59.5-24.5t24.5-58.5q1-71 1-142t-1-142q0-31-10.5-57.5t-30.5-49.5q-5-6-9.5-10.5l-9.5-9.5q-62-63-124-125l-249-249q-62-63-125-125-29-30-64.5-30t-64.5 30q-38 38-77 76-38 38-76 76.5t-76 76.5-77 76q-29 30-29 65t29 64q54 54 108 107l323 323q2 1 4 3l6 6zM623-64q-12 1-22.5 3.5t-19.5 7.5q-10 6-20 12.5t-19 13.5q-7 4-8.5 10.5t2.5 12.5q3 6 10 7.5t14-2.5q8-5 16.5-10t16.5-11q21-13 41.5-8t33.5 27q33 55 65.5 110.5t64.5 110.5q16 27 31.5 54t31.5 54q3 5 7.5 8t10.5 2q6 0 9.5-3.5t5.5-8.5 0-9.5-5-8.5q-26-45-52.5-90t-52.5-90q-22-37-43.5-74t-43.5-74q-13-22-32-32.5t-42-11.5v0z" />
<glyph unicode="&#xe904;" glyph-name="announcement-icon" horiz-adv-x="1141" d="M777 448v-481q0-18-7-24.5t-25-6.5q-55 1-107.5 13.5t-102.5 34.5q-40 17-76 39-35 22-66.5 49t-57.5 59q-27 33-48 71-3 6-6.5 7t-8.5 1h-105q-66 0-116 49.5t-50 115.5q0 29-1 57t1 56q4 55 29 97t75 68q13 7 27.5 10t29.5 3h109q6 0 10 2t7 8q23 44 54.5 81t68.5 69q55 47 118 77.5t132 46.5q21 5 43 7.5t43 2.5q16 0 23-6.5t7-22.5v-483zM730 913q-29-1-57.5-6.5t-56.5-15.5q-49-17-93-41t-81.5-55.5-68.5-71.5q-30-39-54-87-4-8-10-12t-16-4q-32 1-64 1h-64q-5 0-10.5-0.5t-10.5-1.5q-45-8-69.5-44t-27.5-79q-2-30-1.5-59.5t0.5-58.5q1-54 35-88t87-35h63.5t62.5 1q9 0 15.5-4t10.5-12q29-63 75-109.5t105-80.5q54-31 111.5-47.5t118.5-20.5v931zM1141 469q-2-67-27.5-125.5t-84.5-100.5q-11-8-22.5-13.5t-23.5-9.5q-10-4-18-0.5t-12 13.5q-4 9 0 17t14 12q53 21 82 60.5t40 93.5q9 45 4.5 87t-23.5 82q-16 33-40.5 56.5t-58.5 36.5q-13 5-17.5 12.5t-0.5 17.5q4 11 12.5 14.5t21.5-1.5q53-21 85.5-61t51.5-91q9-23 12.5-47.5t4.5-52.5v0z" />
<glyph unicode="&#xe905;" glyph-name="avarage-order-value-icon" horiz-adv-x="890" d="M294 736q-2-7-3.5-15.5t-2.5-16.5h314q-1 8-2.5 16.5t-3.5 15.5h-151q-38 1-75.5 0.5t-75.5-0.5v0zM242 647v12q0 56 16 106 16 49 43.5 86t64.5 58 79 21 79-21q36-21 64-58t44-86q16-50 16-106 0-3-0.5-6t-0.5-6h30v12q0 60-17 114.5t-50 96.5q-33 44-75.5 67t-89.5 23q-48 0-90.5-23t-75.5-67q-32-42-49.5-96.5t-17.5-114.5v-6t1-6h29zM890 7q-1 32-2.5 63.5t-3.5 63.5q-1 23-2 47t-2 47h1q-1 34-3 67.5t-3 67.5q-1 19-2.5 38.5t-2.5 38.5l-4 96v19q0 4-0.5 8t-1.5 7v15t-2 7-5 5q-2 2-5 4t-5 4q-3 4-7 7.5t-9 6.5l-1 0.5t-2 1.5q-10 9-21 18t-22 17q-1 2-3 3.5t-4 3.5l16 28q3 6 4 11.5t0 10.5v0 0 1l-2 6t-3 5q-4 5-11 8t-16 3h-54q2-8 3-16l2-16h47l-4-8t-4-7q-5-9-9.5-17.5t-9.5-16.5q16-14 32-27t33-27h-715q17 14 33 27t33 27q-5 8-9.5 16.5t-9.5 17.5q-2 3-4 7l-4 8h47q0 8 1.5 16t2.5 16h-54q-8 0-15-2.5t-11-8.5q-2-2-3.5-5t-1.5-6v-0.5t-1-0.5v0 0q0-5 1-10.5t4-11.5l16-28q-3-2-4.5-3.5l-3.5-3.5q-11-8-21.5-17t-21.5-18l-1.5-1.5t-1.5-0.5q-4-3-8-6.5t-7-7.5q-3-2-5.5-4t-4.5-4q-3-2-5-5t-2-7-0.5-7.5-0.5-7.5q0-3-0.5-7t-0.5-8v-19l-2-48t-3-48q-1-19-2-38.5t-2-38.5q-2-34-3.5-67.5t-3.5-67.5h2q-1-23-2.5-47t-2.5-47q-1-32-2.5-63.5t-2.5-63.5q-1-25 14-44t39-25q8-2 16-2h752t16 2q24 6 38.5 25t14.5 44v0zM815-32h-740q-23 0-33.5 11t-9.5 34q2 40 3 81 2 41 4 81.5t4 80.5q2 41 3 82 3 51 5.5 103t4.5 103q0 5 0.5 10t0.5 10v4h775v-2t1-2v-10t1-9q2-52 4.5-104t4.5-103q2-41 4-81 2-41 3.5-81.5t3.5-81.5q2-40 4-81 1-23-9.5-34t-33.5-11v0zM498 273q-7 3-15 5t-15 4q-13 2-25.5 3t-24.5 6q-12 4-21 10.5t-11 19.5q-2 15 5 25t18 18q5 3 10.5 5t11.5 3q20 3 37-2.5t32-18.5q8 8 16 15t16 15q-15 15-32.5 23t-37.5 13v39h-22t-22-1v-8t1-7q2-13-3-20.5t-18-13.5q-27-11-41.5-32t-14.5-50q0-27 14.5-44t36.5-27q8-4 16-6.5t16-3.5q14-2 27-4t26-5q10-3 17.5-8.5t9.5-17.5q2-11-2.5-20.5t-13.5-16.5q-13-9-27.5-12.5t-29.5-0.5q-19 2-34 11.5t-28 22.5q-8-8-15.5-16t-14.5-16q16-17 36-28.5t43-17.5v-36h43q0 6 0.5 12t-0.5 12q0 6 2 9.5t9 4.5q15 3 27 9.5t23 16.5q33 31 25.5 73t-50.5 58v0z" />
<glyph unicode="&#xe906;" glyph-name="billing-icon" horiz-adv-x="1400" d="M177 762q-4 3-7.5 2.5t-6.5-0.5h-136q-14 0-20.5 6.5t-6.5 20.5v141q0 15 6.5 21.5t22.5 6.5h1343q15 0 21.5-6.5t6.5-20.5v-142q0-14-6.5-20.5t-21.5-6.5h-150v-799q0-7-1.5-13.5t-7.5-11.5q-7-5-13.5-4t-13.5 4q-36 19-72.5 38t-72.5 39q-6 3-11 3t-12-3q-36-19-73-38t-73-39q-8-4-15.5-4t-15.5 5l-64 38t-64 39q-5 3-9.5 3t-9.5-3q-32-19-63.5-38t-63.5-38q-8-5-16-5.5t-17 4.5q-36 19-72 37.5t-72 37.5q-7 4-12.5 4t-12.5-4q-37-19-74.5-37.5t-74.5-36.5q-19-10-28.5-3.5t-9.5 27.5q-1 96-1 193v603zM1178-3v918h-956v-919q5 0 8 2t6 3q31 16 63 31.5t63 31.5q8 4 16 4t16-4q36-19 72.5-37.5t71.5-37.5q6-3 11-3t11 3q31 20 63 38.5t64 37.5q8 5 16 5t17-5q31-19 63-37.5t64-37.5q6-4 11.5-4t11.5 3q36 19 72 37.5t71 37.5q9 4 17 4t17-5q29-15 58.5-30.5t59.5-31.5q3-1 6-3t7-1v0zM44 809h133v106h-133v-106zM1223 916v-107h132v107h-132zM722 312v-56q0-13-6-20.5t-16-7.5-16 7.5-6 20.5v57h-73q-8 0-15 6t-8 14 4.5 15 13.5 8q3 1 6.5 1h136.5q17 0 30.5 7.5t22.5 23.5q7 14 6 28.5t-10 28.5q-8 11-19.5 17.5t-25.5 6.5q-25 0-50-0.5t-50 0.5q-37 2-63.5 29t-28.5 63q-2 16 2 31t11 28q3 5 6 12t5 8q18 10 35.5 20t39.5 9h24v64q0 10 6.5 16.5t15.5 6.5 15.5-6.5 6.5-16.5v-65h61q9 0 15-4t8-12q3-8 0-13.5t-9-10.5q-4-3-8.5-3.5t-9.5-0.5q-30 0-60.5 0.5t-60.5-0.5q-27 0-43.5-16t-16.5-41q0-22 16-38t38-16q24-1 47.5-0.5t47.5-0.5q37 0 65.5-25.5t32.5-61.5q5-37-16-68.5t-58-40.5q-11-3-23.5-3.5t-25.5-0.5v0z" />
<glyph unicode="&#xe907;" glyph-name="booking-icon" horiz-adv-x="904" d="M904 809q0 16-7 23t-24 7h-85v89t-7.5 25-24.5 7h-100q-19 0-26-7t-7-26v-87h-342v91q0 15-7 22t-22 7h-104q-17 0-24.5-7t-7.5-25v-89h-85q-17 0-24-7t-7-24v-839q0-18 7.5-25.5t25.5-7.5h839q17 0 24.5 7t7.5 24v842zM672 911h66v-115h-66v115zM165 911h67v-115h-67v115zM50 790h66v-15q0-7 2-12t5-8q4-4 9-6t11-2h111q7 0 12 2t8 6q4 3 5.5 8t1.5 12v15h342v-17q0-12 7-19t19-7q14 0 28 0.5t28 0.5 28-0.5 28-0.5q6 0 11 2t8 6q4 3 6 8t2 12v15h66v-164h-804v164zM854-15h-804v591h804v-591zM582 72q27 0 51.5 9t43.5 26q20 19 30.5 42.5t9.5 48.5q-2 25-14.5 47.5t-34.5 38.5q-2 2-4 3t-4 3q18 13 29.5 32.5t14.5 40.5q3 23-4 44.5t-22 39.5q-18 20-43.5 31.5t-54.5 11.5q-22 0-43-7.5t-37-20.5q-31-25-39.5-60.5t6.5-68.5q6-13 15-23.5t21-19.5q-24-15-38.5-37t-17.5-47q-4-25 4.5-49t26.5-43q19-20 46.5-31t57.5-11zM506 380q1 14 7.5 25t17.5 20q11 8 23 12t25 4h2q29 0 49.5-15.5t25.5-40.5q2-13-2-25t-14-23q-11-12-26.5-18.5t-32.5-6.5q-16 0-31 6t-25 16-15 22-4 24v0zM494 189q0 18 7 31.5t22 24.5q12 9 27 14t31 5q18 0 34-6t29-17q11-9 17.5-21t6.5-25q1-13-4-25.5t-15-22.5q-13-13-30.5-19.5t-36.5-6.5v0q-22 0-41 8t-31 22q-8 9-12 18.5t-4 18.5v1zM211 345q2 0 4.5 0.5t5.5 1.5 5.5 3 4.5 4l1 1q13 12 26.5 24.5t26.5 24.5v-275h-60q-7 0-12.5-2t-8.5-5-5-7-2-11q0-5 5-14t23-9v0h172q7 0 13 3t10 8q3 4 3.5 9.5t-1.5 11.5q-3 8-9.5 12t-16.5 4v0h-61v324q0 6-1.5 15t-12.5 14q-3 1-5.5 1.5t-5.5 0.5q-7 0-12-3.5t-9-7.5q-5-4-10-9t-11-10q-3-3-6.5-6t-6.5-6q-6-6-12.5-11.5t-12.5-11.5q-8-8-16.5-15.5t-17.5-15.5q-7-7-8.5-15.5t3.5-16.5q3-5 8-8t12-3v0z" />
<glyph unicode="&#xe908;" glyph-name="calendar-icon" horiz-adv-x="976" d="M145 853v-31q-7-1-14.5-1h-62.5q-16 0-26-9.5t-10-26.5v-781q0-18 9.5-27.5t27.5-9.5h839q17 0 26.5 9.5t9.5 25.5v196q0 97 0.5 194.5t0.5 195.5v195q0 19-9.5 28.5t-28.5 9.5h-77v32h79q30 0 48.5-18.5t18.5-48.5v-781q0-15-4-28t-15-24q-9-8-18.5-12.5t-22.5-4.5q-106 1-212 1h-426q-106-1-213-1-28 0-46.5 20t-18.5 45q1 47 0.5 94.5t-0.5 94.5v591q0 34 19 53t53 19h73zM480 527q-18-9-35-18t-34-19q-2 10-4.5 18.5t-4.5 16.5q0 3 1 4.5t3 2.5q19 11 38.5 21t38.5 20q3 2 7 2h39v-385h-49v337zM305 838v-79q-1-20-12.5-31.5t-31.5-12.5h-18t-18 1q-18 0-29.5 11t-12.5 29v159q0 21 12 33t34 12h34q18 0 29.5-11.5t12.5-29.5v-81zM215 837v0 0-77q0-6 3-9.5t10-3.5q8 1 16.5 1t16.5-1q6 0 9 3t3 9v157q0 7-3 9.5t-9 2.5h-30q-11 0-13.5-2.5t-2.5-13.5v-75zM793 838v-78q0-21-11.5-32.5t-32.5-12.5h-34q-19 1-31 12t-12 31q-1 26-0.5 52t0.5 52v55q0 20 12 31.5t32 11.5h35q18 0 30-11.5t12-29.5v-81zM762 838v76q0 8-3 11t-11 3h-33q-6 0-9-2.5t-3-8.5v-158q0-6 3-9t9-3q8 1 16 0.5t16-0.5q9 0 12 3t3 12v76zM340 822v30h295v-30h-295z" />
<glyph unicode="&#xe909;" glyph-name="cart-icon" horiz-adv-x="1226" d="M1226 805q-19-70-39-141-19-70-38.5-140.5t-39.5-140.5q-19-71-39-141h-709q5-24 10.5-46.5t11.5-45.5h575q16 0 31-1.5t29-7.5q35-16 52.5-49.5t8.5-69.5q-9-38-39-61.5t-68-21.5-66.5 28.5-33.5 64.5q-2 18 2 35.5t14 33.5h-373q6-10 10.5-20.5t6.5-21.5q8-44-18.5-79.5t-72.5-42.5q-40-6-75 21t-41 69q-3 19 1 36.5t14 33.5q3 4 3.5 7t-0.5 8l-22 94q-12 47-24.5 93.5t-25.5 93.5q-13 46-26 93-11 39-22 79-10 40-21 79.5t-22 79.5q-11 39-23 79-13 47-49.5 77.5t-90.5 31.5h-14q-1 12-1.5 23.5t-1.5 23.5q20 2 40-0.5t39-9.5q46-16 76-49t46-78q3-9 8-13t15-4q124 1 248 1h743q2 0 4.5-0.5t6.5-0.5v0zM1164 758h-944q0-2 0.5-3.5t0.5-3.5q16-56 31-113 16-56 31.5-112.5t31.5-113.5q15-56 31-113 2-7 5-8.5t9-1.5h674q16 59 33 117 16 59 32 117.5t32 117.5q16 58 33 117v0zM977-13q24 0 40.5 17t16.5 40q0 24-17 41t-41 17-40.5-17.5-15.5-41.5q0-24 16.5-40t40.5-16v0zM428-16q24 0 41 16t17 40q0 25-16.5 42t-41.5 17q-23 0-40-17t-17-40q0-24 16.5-41t40.5-17z" />
<glyph unicode="&#xe90a;" glyph-name="catalog-icon" horiz-adv-x="757" d="M748 733q-55 54-109 108.5t-108 108.5q-5 5-11 7.5t-13 2.5h-414q-6 0-11.5-0.5t-10.5-1.5q-33-7-52-31.5t-19-60.5v-839q0-39 25.5-65t64.5-26h577q38 0 64 25.5t26 63.5v687q0 6-2.5 11t-6.5 10v0zM535 879q35-34 70.5-70t70.5-71h-141v141zM712 681v-650q0-25-13-38t-37-13h-568q-24 0-36.5 13t-12.5 37v835q0 25 12.5 38t37.5 13h395v-196q0-14 6.5-20.5t21.5-6.5h195q-1-4-1-7v-5zM574 337h-392q-10 0-16-3.5t-9-11.5q-4-12 3-21t22-9h392q10 0 16.5 3.5t9.5 11.5q4 12-3.5 21t-22.5 9zM576 515h-395q-8 0-14-3t-10-11q-4-11 3-21t21-10h396q8 0 13.5 3.5t8.5 10.5q5 12-2 21.5t-21 9.5v0zM587 157q-3 1-7 1h-400q-9 0-14.5-3.5t-8.5-10.5q-4-12 3-21t21-9h400q8 1 13.5 7t6.5 13-3 13.5-11 9.5v0z" />
<glyph unicode="&#xe90b;" glyph-name="check-box-icon" d="M956 960h-887q-32 0-50.5-18.5t-18.5-50.5v-887q0-31 18.5-49.5t49.5-18.5h888q31 0 49.5 18.5t18.5 49.5v888q0 31-18.5 49.5t-49.5 18.5v0zM909 657q-1-1-2-1.5t-2-1.5l-73-74q-51-50-101-101-51-50-101.5-101t-101.5-101q-50-51-101-102-5-5-14-11t-23-6q-3 0-6.5 0.5t-6.5 1.5q-8 2-13.5 6.5t-9.5 7.5q-20 20-57 58-37 37-74.5 74t-64.5 65l-28 27v1q-3 3-6.5 6t-6.5 6q-15 16-15.5 35.5t14.5 33.5q7 7 15.5 10.5t17.5 3.5q10 0 19.5-3.5t16.5-11.5q44-44 88-87.5t87-87.5l30-30q42 41 117 116 74 75 147.5 148.5l127.5 127.5 55 54q4 5 12.5 11t21.5 7h3q14 0 25.5-7t17.5-20q7-14 4.5-28t-12.5-26v0z" />
<glyph unicode="&#xe90c;" glyph-name="coupons-icon" d="M235 955q41-2 81.5-3.5t80.5-2.5q17 0 31.5-6t26.5-18q68-69 136-137t136.5-136 136.5-136l136-136q24-24 24-55t-24-55l-310-310q-24-24-55-24t-55 24l-544 544q-12 12-18 26t-7 30q-2 48-3.5 96t-3.5 96q-1 32-1.5 64.5t-2.5 64.5q-1 35 20.5 57.5t57.5 21.5q39-1 78.5-2.5t78.5-2.5v0 0 0zM48 724v0 0q2-40 3.5-80t2.5-80q0-10 3.5-17t10.5-14q68-68 135-136 68-67 136-135l272-272q14-14 24-14t25 14q38 39 77 78t78 77.5 77 77.5l78 78q14 14 14 24t-14 24l-544 544q-6 7-13 10t-16 3l-54 2t-55 2q-53 2-106.5 3.5t-106.5 3.5q-16 1-24.5-7.5t-7.5-24.5q1-40 2.5-80.5t2.5-80.5v0zM349-58q-26 0-46 14t-28 37l-92 268q-4 11-0.5 19.5t12.5 11.5 16.5-1.5 11.5-15.5q23-66 46-133t46-133q6-19 15-23t27 2q25 8 49.5 16.5t49.5 17.5q11 3 19.5 0t11.5-13q3-9-1.5-16.5t-15.5-11.5q-25-9-50.5-17.5t-51.5-17.5q-5-2-10-3t-9-1v0zM234 629q-42-1-70 26.5t-29 70.5q0 41 27.5 69.5t68.5 29.5q43 0 71.5-27.5t28.5-69.5q1-43-26.5-71t-70.5-28zM234 784q-22 1-40-17t-19-40q0-22 18-40t40-19q22 0 40.5 18.5t18.5 39.5q0 22-18 40t-40 18z" />
<glyph unicode="&#xe90d;" glyph-name="dashboard-icon" d="M0 448q1 107 41 200t109 162 162 109q92 40 197 41 108 1 203-40t165.5-113 110.5-168q39-97 36-207-3-102-44-193-41-90-110.5-158t-163.5-107q-93-39-201-38-104 1-196 42-92 40-160.5 109t-108.5 162-40 199v0zM982 468q2 34-9 78-10 44-28 87t-41 79q-22 36-45 53-15-15-29.5-29t-29.5-28q-7 7-14.5 14t-16.5 16q16 14 31 28t31 29q-25 25-64 49-40 25-83 42.5t-84 26.5-68 5v-80h-41v81q-43-2-82-11-40-9-77.5-24.5t-72.5-37.5-67-51q16-15 31.5-29t30.5-27q-9-9-16-16.5t-14-15.5q-15 15-30 29.5t-31 29.5q-28-32-50-67-22-34-37.5-71t-23.5-77q-9-40-11-83h81v-41h-81q1-21 4-41t8-40h327q7 50 35 80t77 41v247h40v-247q50-11 78-41.5t35-79.5h327q4 20 7 40t4 42h-81v40h80zM62 304q22-71 68-135 47-63 113-108.5t147-68.5q82-22 174-12 80 9 146 41 66 33 116 78t83 99 48 106h-895zM601 346q-3 35-30.5 59t-61.5 23q-34-2-60.5-26.5t-25.5-55.5h178z" />
<glyph unicode="&#xe90e;" glyph-name="downarrow-2-icon" d="M512 196q-7 0-13.5 2.5t-11.5 7.5l-475 429q-11 10-12 25.5t10 26.5q10 12 25.5 12.5t26.5-9.5l450-406 450 406q11 10 26.5 9.5t25.5-12.5q11-11 10-26.5t-12-25.5l-475-429q-5-5-11.5-7.5t-13.5-2.5v0z" />
<glyph unicode="&#xe90f;" glyph-name="down-arrow-icon" d="M512 192l512 512h-1024z" />
<glyph unicode="&#xe910;" glyph-name="download-icon" horiz-adv-x="1021" d="M484 345v583q0 3-0.5 6.5t0.5 6.5q2 8 9.5 13.5t16.5 5.5 16-6 8-15q1-4 1-7.5v-584.5q3 1 4.5 4t3.5 5q33 48 65.5 96.5t65.5 97.5q5 7 12 10.5t16 1.5q8-1 13.5-6.5t7.5-13.5q1-7-1-12.5t-6-10.5q-35-50-69.5-100.5t-68.5-100.5q-5-7-9.5-14t-9.5-13q-21-27-51.5-26.5t-49.5 28.5l-62 90t-62 89q-8 12-16.5 24t-16.5 24q-7 10-5.5 20.5t10.5 17.5q10 7 20.5 4.5t17.5-12.5l132-196q2-1 3.5-3.5t4.5-5.5v0zM418-63h-326q-15 0-28 4.5t-24 13.5q-19 16-29.5 35.5t-10.5 45.5q1 62 0.5 123.5t-0.5 123.5q0 11 5 16.5t15 5.5q12 1 19.5-4t8.5-15q1-3 1-6.5v-230.5q0-32 17-49t49-17h630q15 0 22.5-9t3.5-23q-1-7-5-10.5t-12-3.5h-336zM969 159v120q0 15 10.5 22.5t24.5 2.5q8-2 12.5-9.5t4.5-18.5v-222q0-7-0.5-14t-1.5-14q-5-32-23-54t-49-33q-12-4-25.5-3t-26.5 2q-6 0-9 10t0 18q2 7 8 12t14 5q30 2 45.5 18.5t15.5 45.5v112zM509 137h-165q-14 0-21.5 9t-4.5 23q2 7 6.5 12t11.5 6q3 1 6 1h328q13 0 20-4t9-13q5-13-2.5-23.5t-22.5-10.5h-165z" />
<glyph unicode="&#xe911;" glyph-name="earning-icon" horiz-adv-x="1086" d="M1084 610q-5 8-12.5 10.5t-17.5-2.5q-7-3-14.5-6.5t-13.5-7.5q-16-8-32-15.5t-32-15.5q-23 44-53.5 80t-70.5 65q-6-9-11.5-16.5t-11.5-15.5q15-11 28.5-23t25.5-24q34-35 55-77t29-87.5 2-91.5q-5-46-25-89-28-59-72.5-101t-102.5-69q-11-6-16-14t-4-20v-98q1-9-2.5-13t-12.5-3h-62q-9-1-12.5 3t-3.5 13q1 18 1 35.5v35.5q0 12-6 18t-19 5q-32-2-65-2t-66 2q-14 1-19.5-5t-5.5-20v-71q0-8-3.5-11.5t-11.5-2.5h-63q-8-1-11.5 2.5t-3.5 12.5q1 24 0.5 48.5t0.5 48.5q0 14-5 22t-18 14q-56 26-98 66.5t-70 96.5q-4 7-9.5 11t-14.5 3q-13 0-26.5 0.5t-26.5-0.5q-7 0-10 2.5t-5 8.5q-11 42-21 84t-18 84q-4 20-6.5 39.5t-2.5 40.5q5-1 8-1.5t7-1.5q29-6 58.5-4.5t58.5 11.5q7 2 12 6.5t9 10.5q25 41 58 72.5t75 55.5q7 4 10 10t3 15q0 18-0.5 37t-0.5 37v37q8-1 15-4t13-7q21-13 38-30t31-37q6-8 13-11t17-1q19 3 38 4t39 0h23v40q-22-1-44-0.5t-43-2.5q-7-1-12 0.5t-9 7.5q-6 8-13 15.5t-15 14.5q-21 20-45.5 35t-55.5 19q-16 2-23.5-4.5t-7.5-22.5q1-27 1.5-55t1.5-55q0-6-2.5-10t-7.5-8q-38-24-69-54t-55-67q-4-8-10-11.5t-14-5.5q-25-5-49-4t-47 9q-14 5-23 0.5t-15-17.5q-5-12-6.5-24.5t0.5-25.5q6-65 21.5-128.5t32.5-125.5q3-9 8-13t14-4h59q6 1 9-1t6-6q30-54 72.5-94t96.5-68q6-3 8-6.5t2-9.5q-1-22-1-44.5t1-44.5q0-21 15.5-36t35.5-15q15 0 30.5 0.5t30.5-0.5q24-3 43 15.5t16 43.5q-1 12-0.5 24.5t0.5 25.5h102v-56q0-22 15.5-37.5t37.5-15.5h63q24 0 39.5 15.5t15.5 40.5q1 22 1 43.5t-1 43.5q0 5 2 8.5t7 5.5q43 22 79 52t64 68q41 56 59 118.5t9 131.5q-2 19-6.5 37t-9.5 36q2 1 4.5 2.5t3.5 2.5q22 10 43 20t42 21q10 4 13 11t0 16v0zM726 720q48 0 84.5 36.5t36.5 83.5q-1 48-37 84t-83 36q-48 0-84-36t-36-84q0-47 35.5-83t83.5-37v0zM730 920q33 0 55-23t22-58-23-57.5-58-21.5q-35 0-57.5 23t-22.5 58q1 36 24 58t60 21zM505 651q2-9 9-13t17-2q38 7 75.5 6.5t74.5-14.5q10-4 18-1.5t11 11.5-1 16-15 11q-23 9-48 13t-50 4q-18 0-36.5-2t-36.5-5q-11-3-15.5-9.5t-2.5-14.5v0zM300 587q-1-13 9-22.5t23-9.5 22.5 9 9.5 22q0 14-9.5 23.5t-22.5 9.5q-14 0-23-9.5t-9-22.5z" />
<glyph unicode="&#xe912;" glyph-name="edit-pencil-icon" horiz-adv-x="1025" d="M614 805q7-9 14-17l14-16-333-333q-56-55-111-111 21-21 41-40.5t39-38.5l444 444q9-10 17-18.5t16-17.5q-55-55-110-111l-110.5-110.5t-111.5-110.5q-55-56-110-111 19-20 38.5-40t40.5-40l441 441 15.5-15.5t16.5-15.5q-1-4-4-6t-5-5q-57-57-115-114l-342-342q-8-8-17-12l-18-8q-47-17-93-33.5t-92-33.5q-35-12-70.5-25t-70.5-25q-8-3-16-4t-15 7q-7 7-7 15t3 16q16 43 32 85 15 43 30.5 85.5t31.5 84.5q15 43 31 85 1 5 4 9l6 8q59 59 118 117 59 59 117.5 118t117.5 117q58 59 117 118 1 0 2 1t4 3v0zM352 103l-185 185q-13-36-26-72.5t-27-72.5q-1-5 1-8t4-5l74-74q5-5 9-6t10 2q18 6 35.5 12.5t35.5 12.5q17 7 34.5 13t34.5 13v0zM61-3q24 9 46 17t42 15q-14 15-27.5 29t-27.5 28q-8-21-16-43t-17-46v0zM662 857q19 20 38.5 41.5t42.5 39.5q32 24 70.5 22t65.5-30q30-30 59.5-59t58.5-59q27-27 28-67t-25-68q-17-18-34.5-35.5t-35.5-34.5l-11-11q-32 33-64 65-32 33-64 65.5t-65 65.5q-32 33-64 65v0zM729 858l194-194q10 11 21 22l22 22q16 17 16 35t-16 35l-62 62t-62 61q-16 16-34 16t-34-15q-12-11-23-22l-22-22z" />
<glyph unicode="&#xe913;" glyph-name="export-icon" horiz-adv-x="835" d="M418-64h-317q-41 0-71 30t-30 71v473q0 42 30 72t72 30h172q12 0 18-5.5t6-14.5q0-10-6-15t-17-5h-173q-19 0-34-7.5t-23-26.5q-3-6-4-13t-1-15v-473q0-28 16.5-44.5t44.5-16.5h634q27 0 43.5 16.5t16.5 43.5v477q0 26-16.5 42.5t-42.5 16.5h-161q-8 1-13 6.5t-5 13.5 5 14 14 6q42 0 84.5 0.5t84.5-0.5q35-2 62.5-32t27.5-65v-482q0-37-30-67t-67-30h-320zM398 888v-520q0-12 4.5-18t13.5-7q10-1 15.5 5.5t6.5 17.5v522q4 0 6-2.5t4-4.5q32-32 63-63.5t63-62.5q2-2 4-4.5t5-3.5q6-4 12-3.5t12 5.5q5 5 6.5 11.5t-2.5 13.5q-1 1-2.5 3t-3.5 3q-42 43-85 86t-86 85q-9 9-16.5 9t-16.5-9q-43-43-86-85.5t-86-85.5q-7-8-7.5-16t6.5-15q6-6 14.5-5.5t15.5 8.5q31 31 62 61.5t61 61.5q4 3 7 7l6 8q1-1 2-1.5t2-0.5v0zM398 258q0-4-0.5-8.5t0.5-8.5q1-8 6.5-13t13.5-4q9 0 13.5 4.5t5.5 12.5q1 9 1 17t-1 17q0 8-6 13.5t-14 4.5q-8 0-13.5-5t-5.5-14v-16z" />
<glyph unicode="&#xe914;" glyph-name="eye-icon" horiz-adv-x="1504" d="M743-64q-69 0-135.5 14t-130.5 40q-65 26-124 59t-112 74-100 89q-48 49-89 105-10 15-18.5 30.5t-16.5 31.5q-18 36-17 71.5t19 70.5q23 47 54.5 87t67.5 76q54 55 115.5 100t129.5 81q48 25 97 44 50 19 100.5 31t103.5 17q52 5 106 2 55-4 108-15t103-28.5 98-42.5q48-24 94-54 37-24 73-51 35-27 67-57t62-64q29-33 55-70 10-15 18.5-30.5t16.5-31.5q16-34 16-67.5t-17-67.5q-22-46-52.5-86t-65.5-76q-31-32-65-61t-69.5-54.5-73.5-47.5q-39-23-79-42-40-18-82-33-41-15-83.5-24.5t-85.5-14.5q-44-5-88-5v0zM762-4q12-1 30.5 1t37.5 4q47 6 91 18 45 12 87.5 28.5t83.5 38.5q41 21 80 47 40 26 77 56.5t71 64.5q33 34 62 70.5t49 78.5q10 21 12 41t-9 42q-10 20-21 39t-24 36q-34 45-72 84t-80.5 72.5-89.5 61.5q-46 28-97 52-59 27-119 44-59 17-120 22.5t-123-0.5-125-25q-58-17-112-42t-104-56.5-96-70.5q-45-38-87-83-29-30-53.5-63.5t-41.5-72.5q-8-18-8.5-36t8.5-37q10-21 21.5-40t24.5-37q45-60 100-110t117-91q48-31 98-56t103-43 110-27q57-10 119-11v0zM746 177q-56 1-104 23-49 23-85 60.5t-56 86.5q-21 50-20 106t23 104q22 49 59.5 85t87.5 57 106 20q55-1 104-23t85-59.5 57-87.5 20-106-24-106q-22-49-59.5-85t-87.5-56-106-19v0zM541 449q0-44 17-83 17-38 45.5-66.5t66.5-45.5q39-17 82-17 44 0 82 17t67 46 45 67q17 39 17 82-1 44-17 82-17 38-46 66.5t-68 44.5q-38 17-82 17-43 0-81-17t-66.5-45.5-44.5-67.5q-17-38-17-80v0z" />
<glyph unicode="&#xe915;" glyph-name="uncheckbox-icon" d="M917 960h-809q-48 0-78-30t-30-78v-809q0-46 30.5-76.5t76.5-30.5h810q46 0 76.5 30.5t30.5 76.5v810q0 46-30.5 76.5t-76.5 30.5v0zM85 852q0 13 5 18t18 5h809q12 0 17-5t5-17v-810q0-12-5-17t-17-5h-810q-12 0-17 5t-5 17v809z" />
<glyph unicode="&#xe916;" glyph-name="history-icon" horiz-adv-x="1020" d="M1006 557q-18 78-57 144-38 66-92.5 116.5t-122.5 83.5q-69 33-147 45-55 9-107 6-52-2-101.5-14.5t-95.5-35.5q-47-23-91-56-13-10-24.5-21t-24.5-22q0 5-0.5 8t-0.5 7q-2 29-3.5 57.5t-3.5 57.5q0 3-0.5 5.5t-1.5 5.5q-3 8-11 12.5t-16 3.5q-10-2-16-9.5t-5-17.5q2-48 5-95.5t6-94.5q1-16 8.5-23t23.5-5q45 2 90 5t90 7q12 0 19 8t6 19q0 10-8 16.5t-19 6.5l-34-2t-33-3q-14 0-28.5-1t-30.5-2q33 32 68 56t73 41.5 79 26.5q41 10 85 13l50-2q82-3 159-39 77-35 137-93.5t98-135.5 41-164l1-45q0-82-34-161t-93.5-141-138.5-101q-80-38-171-39h-50q-46 1-93 15t-91 37.5-83 55.5q-40 33-70 72-45 58-69.5 123.5t-27.5 139.5v44q1 9 1.5 16.5t0.5 14.5q1 10-5 18t-16 10q-10 1-18-4.5t-11-16.5q-1-4-1-8.5v-9.5q-4-54 2-106 7-51 23-99.5t42-92.5q26-45 62-86 34-38 72-68t80.5-51 89.5-34 98-17q46-4 91 0 45 3 87.5 14.5t82.5 30.5 79 46q63 45 108 105 45 59 71 128.5t30 144.5q5 75-13 150v0zM393 371q28 0 56 0.5t57-0.5q10 0 17 4t12 12l140 192q17 24 34 47t33 46q10 13 5.5 26t-19.5 16q-9 2-15.5-2t-12.5-12q-24-33-49-67-24-34-48.5-67.5t-49.5-67.5q-24-33-48-67-4-6-8.5-8t-11.5-2q-12 1-25 1h-184q-12 0-19.5-7t-7.5-18q-1-11 6.5-18t20.5-8h117z" />
<glyph unicode="&#xe917;" glyph-name="image-icon" horiz-adv-x="1433" d="M483 630q0 42-29 71t-71 29q-41 0-70.5-29t-29.5-71q0-41 29.5-70.5t70.5-29.5 70.5 29.5 29.5 70.5v0zM311 629q-1 31 20.5 52.5t51.5 21.5 51.5-21.5 21.5-50.5q0-30-21.5-51.5t-50.5-21.5q-30-1-51.5 20.5t-21.5 50.5v0zM0 960v-1024h1433v1024h-1433zM27-37v970h1378v-807l-352 352q-12 12-17 12t-18-13l-220-220q-3-2-5-5.5t-4-7.5q-48 46-94.5 89.5t-92.5 86.5q-11 11-16.5 11t-16.5-12l-156-164-64-68q-5-5-6-10.5t5-10.5q5-5 11-4t10 6l3 3q52 54 103 108.5t103 108.5q2 3 3.5 5.5t5.5 2.5q46-43 91.5-85.5t91.5-85.5q12-11 17.5-11t17.5 12l57 57t57.5 58 57.5 58 57 58q3-2 4-3l1-1q46-46 91-92 46-45 91.5-90.5l182.5-182.5 1 2v-127h-1378z" />
<glyph unicode="&#xe918;" glyph-name="import-icon" horiz-adv-x="835" d="M418-64h-317q-41 0-71 30t-30 71v473q0 42 30 72t72 30h172q12 0 18-5.5t6-14.5q0-10-6-15t-17-5h-173q-19 0-34-7.5t-23-26.5q-3-6-4-13t-1-15v-473q0-28 16.5-44.5t44.5-16.5h634q27 0 43.5 16.5t16.5 43.5v477q0 26-16.5 42.5t-42.5 16.5h-161q-8 1-13 6.5t-5 13.5 5 14 14 6q42 0 84.5 0.5t84.5-0.5q35-2 62.5-32t27.5-65v-482q0-37-30-67t-67-30h-320zM398 296v520q0 12 4.5 18t13.5 7q10 0 15.5-6t6.5-17v-522q4 0 6 2.5t4 4.5l130 130t5 4q6 4 12 3.5t12-5.5q5-5 6.5-11.5t-2.5-13.5q-1-2-2.5-3.5t-3.5-2.5q-42-43-85-86l-86-86q-9-8-16.5-8t-16.5 9q-43 42-86 85l-86 86q-7 8-7.5 16t6.5 15q6 6 14.5 5.5t15.5-8.5q31-31 62-61.5t61-61.5q4-4 7-7.5t6-7.5q1 0 2 0.5t2 1.5v0zM398 925q0 5-0.5 9t0.5 9q1 8 6.5 12.5t13.5 4.5q9 0 13.5-5t5.5-13 1-16.5-1-16.5q0-8-6-13.5t-14-5.5q-8 1-13.5 6t-5.5 13v16z" />
<glyph unicode="&#xe919;" glyph-name="knowledgebase-icon" horiz-adv-x="1464" d="M244 178v241q0 6-2.5 9.5t-7.5 6.5q-54 27-107.5 55t-106.5 55q-9 5-14.5 10.5t-5.5 15.5 6 15.5 14 9.5q87 45 173 89l522 270q9 5 17 5t17-5q86-44 172-89 87-45 173.5-89.5t172.5-89.5q86-44 173-89l8-4q7-4 11.5-9.5t4.5-14.5-5-14.5-12-8.5q-44-23-88.5-46t-89.5-46q-12-7-26.5-12t-20.5-16q-6-10-4-25t2-29q-1-27 0.5-54.5t-5.5-54.5q-13-52-43.5-92.5t-70.5-73.5q-61-51-132-80t-149-40q-78-10-155-2.5t-152 27.5q-12 3-17.5 11.5t-2.5 19.5q3 10 12 14.5t20 1.5q57-15 114-23t115-5q43 1 85 8 41 6 80.5 19t76.5 33q37 19 71 46 35 28 61 61.5t38 77.5q5 17 5 34v103q-5-3-9.5-5t-8.5-4l-100-52t-100-51.5-100-51.5-99-52q-12-6-22.5-6t-21.5 6q-51 27-102 53-51 27-102 53t-102 53l-110 56v-225q29-9 51-27t35-46q8-18 10-36.5t-3-38.5q-10-41-46.5-68.5t-78.5-25.5q-41 2-75 33.5t-40 74.5q-5 36 18 76.5t79 57.5v0zM1386 570q-4 2-6.5 3.5t-4.5 2.5l-474 246q-80 41-159 82-6 3-11 2.5t-10-3.5q-67-34-133-69-67-34-133.5-68.5t-133.5-68.5q-66-35-133-69-27-14-54-28.5t-56-28.5q5-3 8.5-5t6.5-4q40-20 79.5-40.5t78.5-40.5q8-5 15-5.5t16 1.5q55 15 110 29 54 15 109 29t110 29q55 14 109 28 14 4 23.5 0t12.5-15-3.5-19.5-20.5-11.5q-74-20-149-40t-150-39q-24-7-49-13.5t-52-13.5q5-3 8.5-5t6.5-4q47-24 93-48t92.5-48 92.5-48 93-48q8-4 14.5-4t13.5 4q57 30 115 60 57 29 114 58.5t114 59.5q57 29 114 59 45 23 90.5 46.5t92.5 47.5v0zM342 59q-1 32-21.5 52t-53.5 20q-32 0-52-20t-20-53q0-32 20.5-52.5t52.5-20.5q33 0 53.5 20.5t20.5 53.5v0z" />
<glyph unicode="&#xe91a;" glyph-name="left-arrow-icon" horiz-adv-x="503" d="M503 923q0-7-2-13.5t-7-11.5l-406-450 406-450q10-11 9.5-26.5t-12.5-25.5q-11-11-26.5-10t-26.5 12l-428 475q-10 11-10 25t10 25l428 475q11 11 26.5 12t26.5-10q6-5 9-12.5t3-14.5z" />
<glyph unicode="&#xe91b;" glyph-name="export" d="M475 960v-43h-40q-65 1-130.5 1h-130.5q-26-1-49.5-9t-43.5-26q-20-20-29-44t-9-52q-1-57-1-114v-562q1-27 9-50.5t27-43.5 43-29 51-9q85 0 169-1h339t170 1q48 0 82 25t45 69q3 10 3.5 20.5t1.5 20.5v263h41q2-2 1.5-4t-0.5-4v-264q0-61-44-110.5t-104-56.5q-7-1-14-1.5t-14-0.5h-675q-71 0-122 51t-51 122v679q0 63 43 112.5t106 57.5q6 1 11.5 1.5t11.5 0.5h303zM937 763q-33 32-64.5 63.5l-62.5 62.5 30 30q43-44 87-88l88-88q-44-44-88-88.5t-89-88.5l-28 28q31 31 61.5 62t61.5 61v1.5t-1 1.5q-7-1-14.5-1t-15.5-1q-42-3-84-9t-83-16.5-81-25.5q-39-15-77-36-49-27-90-61t-74-74.5-58-87.5-43-100q-12-37-19.5-75.5t-9.5-78.5h-42q0 16 1.5 31t3.5 30q10 63 30.5 122t53.5 114q27 45 59 83 33 38 71.5 69.5t82.5 56.5q43 25 92 44 45 18 92 29.5t95 18.5q28 4 56.5 6.5t58.5 4.5v0z" />
<glyph unicode="&#xe91c;" glyph-name="logout-icon" horiz-adv-x="1025" d="M0 448v427q0 38 23.5 61.5t61.5 23.5h534q36 0 59.5-23t23.5-60v-152q0-8-4.5-13.5t-11.5-7.5q-7-1-13.5 2.5t-9.5 9.5q-1 3-1 6.5v150.5q0 23-12 34.5t-34 11.5h-537t-11-2q-13-5-20-15t-7-25v-854q0-23 11-34.5t33-11.5h531q23 0 34.5 11.5t11.5 34.5v161.5t1 6.5q2 7 8.5 10.5t13.5 2.5 12-6.5 5-12.5q0-45 0.5-89t-0.5-88q-1-28-24-49.5t-52-22.5h-543q-36 0-59.5 23.5t-23.5 59.5v429zM954 428h-562t-80-1q-10 0-16.5 6t-6.5 15q-1 8 5.5 14.5t18.5 6.5q77-1 155-1h486q-3 3-5 5.5t-4 4.5q-31 32-63 63.5t-63 63.5q-10 9-8 20.5t15 15.5q7 2 12-0.5t10-7.5l168-168q9-8 9-16.5t-9-17.5q-42-42-84-84.5t-85-84.5q-7-7-15.5-7.5t-14.5 5.5q-7 7-6.5 15.5t7.5 15.5l128 128q2 1 4 3.5t4 5.5v0z" />
<glyph unicode="&#xe91d;" glyph-name="minus-icon" d="M1024 449q-1 13-8 22t-21 12q-6 1-12 1h-930q-26 1-40-8.5t-13-28.5q1-18 14.5-26.5t39.5-8.5h927.5t13.5 1q13 2 21.5 13t7.5 23v0z" />
<glyph unicode="&#xe91e;" glyph-name="my-shop-icon" horiz-adv-x="1023" d="M287 527q-8 1-16 1t-15 2q4 50 15.5 98t28.5 95q-17 5-33.5 9t-32.5 8q-18 5-36.5 11.5t-35.5 14.5q-5 2-8.5 1.5t-6.5-4.5q-36-44-59-94t-34-106q-2-9-3.5-18t-3.5-19q-8 1-15.5 2t-14.5 2q8 80 44 154 35 74 94 132t138 96 173 46q101 9 194-19 93-29 166-86.5t121-139.5q48-83 60-183-7-1-15-2l-16-2q-3 21-7.5 42t-10.5 41q-13 42-33.5 80.5t-48.5 73.5q-2 2-4.5 4t-6.5 0q-33-14-67-24.5t-69-17.5q-1 0-2.5-0.5t-3.5-1.5q17-46 28.5-94.5t15.5-98.5q-7-2-15-2t-16-1q-5 49-15.5 97t-28.5 94q-40-6-81-9.5t-83-4.5v-175h-32v175q-42 1-83 4.5t-82 9.5q-17-46-28-94t-16-97v0zM417 918h-9q-46-10-88.5-28t-81.5-44q-16-12-31.5-24.5t-30.5-27.5q34-14 67.5-23.5t68.5-16.5q1 3 2.5 6t2.5 6q15 32 32 62t39 57q7 8 14.5 16.5t15.5 16.5l1 1h-0.5t-0.5 1v-1l-1-1zM606 919h-2l1-1q1-1 1-1.5t1-1.5q21-19 37.5-42t31.5-48q10-17 18.5-35t16.5-36q35 7 69 16.5t67 23.5q-30 30-64 53t-72 40q-25 11-51 19.5t-54 12.5v0zM495 927q-4-2-8.5-3t-8.5-3q-19-8-35-21.5t-29-30.5q-23-27-40-57t-31-63q38-6 76-9t76-4v191zM680 749q-2 4-3.5 8t-3.5 7q-16 35-35.5 67t-46.5 58q-13 13-28.5 23t-34.5 14v-190q39 1 76.5 4t75.5 9v0zM16 366q7 1 15 2l16 2q1-9 3-18t3-18q11-55 34-105t59-95q4-4 7.5-5t8.5 1q31 14 63 23.5t65 16.5q2 1 4.5 1.5t5.5 0.5q-17 48-28.5 96t-15.5 98q7 2 15 2t16 1q5-49 16-97t28-94q41 6 82 9.5t82 4.5v175h32v-175q42-1 83-4t82-10q17 46 28 93.5t16 97.5q4 0 8-0.5t8-0.5q3 0 7-0.5t8-0.5q-4-50-15.5-98.5t-28.5-95.5q13-4 26-7l26-6q22-6 44-13t43-17q5-2 8-1t7 5q35 44 58 93.5t35 104.5q1 9 3 18.5t3 19.5q8-1 15.5-2t15.5-2q-10-87-48-162-39-75-99-131.5t-138-91.5q-77-36-166-43-100-9-192 19t-165.5 85-121.5 140q-49 83-61 184v0zM606-22h9q51 11 98.5 32t89.5 53q11 9 22 18.5t22 20.5q-33 14-67 23.5t-69 16.5q-1-3-2.5-6t-2.5-6q-11-25-24-48.5t-29-46.5q-10-15-22.5-29t-25.5-28l-1-1h1.5t0.5 1v0zM343 147q12-28 26.5-55t32.5-51q14-19 30.5-35t37.5-27q6-3 12-5.5t13-3.5v190q-38-1-76-4t-76-9v0zM528-30q15 3 27.5 10t24.5 17q22 19 39 41.5t31 48.5q9 14 16.5 29t13.5 31q-38 6-76 9t-76 4v-190zM176 102q51-50 111.5-81t129.5-43q-35 35-60 77t-45 87q-35-7-69-16.5t-67-23.5v0zM63 400v32h-63v32h63v32h960v-96h-960zM863 463h-543v-30h543v30zM991 463h-95v-30h95v30zM96 433h63v30h-63v-30zM192 464v-31h31v31h-31zM287 463h-31v-30h31v30zM417 918l1 1v1q0-1 0.5-1h0.5l-1-1h-1zM605 918l-1 1h2l-1-1zM606-22q0-1-0.5-1h-1.5l1 1h1z" />
<glyph unicode="&#xe91f;" glyph-name="order-details-icon" horiz-adv-x="734" d="M412 295q-4 2-8.5 4.5t-8.5 4.5q-3 1-5 3t-2 6v121q11-1 20.5-4t18.5-6q11-4 19-1t12 12q3 10-1.5 17t-15.5 11q-12 6-25.5 8.5t-27.5 5.5q0 9 0.5 17t-0.5 16q0 10-6 16t-15 6-14.5-6-6.5-16v-33l-6-2t-5-2q-46-16-61.5-58t8.5-84q9-17 23.5-28t31.5-18q3-2 6.5-3t3.5-7q-1-31-0.5-63.5t0.5-64.5q-15 1-28 3.5t-26 6.5q-9 3-16 1.5t-12-10.5q-6-9-1.5-18.5t16.5-12.5q16-5 33-8t34-5v-17t-0.5-8 0.5-9q0-10 6-16.5t15-6.5 15 6.5 6 17.5v34q2 1 3.5 1.5t3.5 0.5q31 9 51.5 32t22.5 51q3 34-12.5 62t-45.5 43v0zM345 329q-18 7-28 20t-9 30q0 16 10.5 34t26.5 19v-103zM388 149v109q19-5 30.5-19t11.5-32q0-20-11.5-36.5t-30.5-21.5zM141 807h241q14 0 21 5.5t7 15.5q-1 10-7.5 15.5t-19.5 5.5h-242q-13 0-20-5.5t-7-15.5 7-15.5 20-5.5v0zM382 701h2q12 0 18.5 5.5t6.5 15.5-6.5 15.5-17.5 5.5h-245q-12 0-19-5.5t-7-15.5 7-15.5 19-5.5h242zM382 596q13 0 20.5 5.5t7.5 15.5q-1 10-7.5 15.5t-19.5 5.5h-242q-13 0-20-5.5t-7-15.5 7-15.5 20-5.5h241zM598 849h-82t-16-6-6-15 6-15 16-6h82q10 0 16.5 6t6.5 15q-1 9-7 15t-16 6v0zM597 743q-20 1-40 1t-40-1q-10 0-16.5-5.5t-6.5-14.5q-1-10 6-16t18-6h78q11 0 18 6t7 16q-1 9-7.5 14.5t-16.5 5.5v0zM598 638h-82q-10 0-16-6t-6-15 6-15 16-6h82q10 0 16 5.5t6 14.5q1 9-5.5 15.5t-16.5 6.5v0zM734 329v535q0 42-27 69t-69 27h-541q-43 0-70-27t-27-70v-831q0-41 27-68t69-27h295q72 0 131-0.5t111-0.5h1q21 0 39.5 7.5t32.5 21.5 21 32.5 7 39.5q-1 73-1 147t1 145v0zM692 161v-124q0-30-14.5-44t-44.5-14h-531q-30 0-45 14.5t-15 43.5v822q0 14 4 25t11 19q8 7 19 11t25 4h536q14 0 25-5t19-15q6-7 8.5-15.5t2.5-17.5q-1-26-1.5-51.5t-0.5-49.5q1-31 1-62v-103q1-55 1-110v-328z" />
<glyph unicode="&#xe920;" glyph-name="orders-icon" horiz-adv-x="750" d="M171 805v40q0 13 6 19.5t19 6.5h97q0 23 8 42t28 33q13 9 27.5 12t29.5 1q31-3 50-26.5t21-60.5q7-2 13.5-1.5t13.5 0.5q18 0 35.5-0.5t35.5 1.5q9 1 16-6t7-17q1-10 0.5-20.5t-0.5-20.5q4-3 7-3h6q25 0 50.5 1t50.5-2q25-2 41-21t16-44v-656t1-77q0-29-20.5-49.5t-49.5-20.5h-612q-29 0-47.5 17t-19.5 45q-1 49-1 98v625q0 20 4.5 38.5t20.5 32.5q6 6 14 8.5t17 3.5q25 2 50.5 1.5t50.5-0.5h14zM170 773h-100q-19 0-28.5-9.5t-9.5-28.5v-726q0-21 11.5-31t28.5-10h152q75 1 151 1h302q21 0 30.5 9.5t9.5 30.5v728q0 17-9.5 26.5t-26.5 9.5h-101v-41q-1-13-7.5-20t-19.5-7h-358q-12 0-18 6.5t-6 18.5q-1 10-1 21v22zM203 739h343v100h-99q-13 0-17.5 4.5t-4.5 16.5q-1 5-0.5 10.5t-0.5 10.5q-1 20-13.5 32t-33.5 15q-19 1-33.5-11t-17.5-30q-1-7-1.5-14t-0.5-13q0-12-4.5-16.5t-16.5-4.5h-44t-44-1q-3 0-6 0.5t-6-1.5v-98zM375 341h-227q-13 0-19 4t-6 12 6.5 12 19.5 4h448q3 0 6 0.5t6-0.5q8 0 12.5-4.5t4.5-11.5-4.5-11.5-12.5-4.5h-234zM375 527h-237t-7 2q-5 4-7 8t0 10q1 6 5.5 9t11.5 3h469q8 0 12-4.5t4-11.5-4-11.5-12-4.5h-235zM439 87q39 39 77.5 77t76.5 76l8 8q6 4 11 3.5t10-5.5q4-5 4.5-10.5t-3.5-10.5q-1-2-2.5-3t-3.5-3l-80.5-80.5t-81.5-80.5q-9-10-15.5-10t-16.5 10l-71 71q-7 7-7.5 13t5.5 12q5 5 11.5 4.5t12.5-6.5q17-16 33-32.5t32-32.5zM188 154h-48q-7 0-12 5.5t-5 11.5 4.5 10.5 11.5 5.5h100q8-1 12.5-5t4.5-11-4.5-11.5-12.5-4.5q-13-1-25.5-1h-25.5zM373 905q11 0 18.5-7.5t7.5-18.5q0-9-7.5-17t-16.5-7q-10 0-18 7.5t-8 16.5q0 11 7 18.5t17 7.5v0z" />
<glyph unicode="&#xe921;" glyph-name="import" d="M475 960v-43h-40q-65 1-130.5 1h-130.5q-26-1-49.5-9t-43.5-26q-20-20-29-44t-9-52q-1-57-1-114v-562q1-27 9-50.5t27-43.5 43-29 51-9q85 0 169-1h339t170 1q48 0 82 25t45 69q3 10 3.5 20.5t1.5 20.5v263h41q2-2 1.5-4t-0.5-4v-264q0-61-44-110.5t-104-56.5q-7-1-14-1.5t-14-0.5h-675q-71 0-122 51t-51 122v679q0 63 43 112.5t106 57.5q6 1 11.5 1.5t11.5 0.5h303zM402 228l-126 126q-8-8-15.5-15t-14.5-15q44-43 88-87l88-88 177 177-28 28q-31-31-62-61.5t-62-61.5l-0.5 0.5t-1.5 0.5q0 7 0.5 14.5t1.5 15.5q3 43 9 85t16 82.5 25 80.5q15 39 36 77 27 50 61 91t74.5 74 87.5 58 100 43q37 12 75.5 19.5t78.5 8.5v43q-16 0-31-1.5t-30-3.5q-63-10-122-30.5t-114-53.5q-45-27-83-60t-69-71.5-56-81.5q-25-44-44-92-18-46-30-93t-19-95q-4-28-6.5-56t-3.5-58v0z" />
<glyph unicode="&#xe922;" glyph-name="payments-icon" horiz-adv-x="1031" d="M551 463q6-1 11.5-2t10.5-3q53-12 70.5-49t13.5-79q-5-49-30.5-83.5t-71.5-52.5q-3-2-4-4t-1-5q0-7 0.5-14t-0.5-14q0-11-6.5-18t-16.5-7-16.5 7-6.5 18v25q-6 2-12.5 2t-11.5 1q-32 5-56.5 21.5t-45.5 39.5q-6 7-5 16.5t8 15.5q8 6 17 5.5t16-8.5q10-10 21.5-19.5t24.5-16.5q10-4 20.5-6.5t21.5-1.5q2 2 2 4.5v176.5q0 6-2 8.5t-8 3.5q-28 5-52.5 16.5t-42.5 34.5q-40 53-20.5 119.5t80.5 84.5q11 3 22 4.5t23 1.5v52q0 12 6 19.5t17 7.5q10 0 16.5-7.5t6.5-19.5v-60q22-8 40-20.5t31-30.5q6-8 6-15.5t-5-14.5q-5-6-12.5-8t-14.5 1q-4 1-6.5 3.5l-5.5 5.5q-6 9-14 15.5t-18 12.5v-163zM503 470v167q-31 4-56.5-14t-27.5-48q-4-41 15.5-70.5t68.5-34.5zM551 415v-173q2-1 4 0.5t3 2.5q23 16 36.5 37.5t16.5 49.5q5 37-10.5 58t-49.5 25v0zM983 431v17q0 11 7 17.5t18 6.5q10 0 16.5-7.5t6.5-17.5q-2-73-21-141t-58-130q-13-20-27.5-39t-31.5-37q-5-5-11.5-7t-13.5 0q-6 2-10.5 6.5t-5.5 11.5q-2 7 0.5 12.5t7.5 9.5q24 27 44 56t35 62q21 43 31.5 88t12.5 92v0zM1 471q2 46 12 89 9 43 26 83.5t40 77.5q24 37 55 71 9 10 19 11.5t18-5.5 7.5-17-9.5-20q-47-51-76-111t-40-128q-3-17-4.5-34.5t-1.5-35.5q0-13-7-20.5t-17-7.5q-11 0-17 8t-6 21q0 4 0.5 8.5t0.5 9.5v0zM293 27q1-16-11-22.5t-24-0.5q-20 11-38 23.5t-34 26.5q-42 35-75.5 77t-57.5 90q-8 17-15 34.5t-13 35.5q-4 13-0.5 22t13.5 12q11 4 19-1.5t12-17.5q22-66 59.5-120.5t91.5-98.5q14-12 29.5-22.5t31.5-19.5q6-3 9-8t3-10v0zM647 924q0-11-8.5-17.5t-21.5-4.5q-16 3-32.5 6t-33.5 4q-67 5-131-8.5t-124-44.5q-4-2-7.5-4t-7.5-4q-9-4-18-1.5t-14 10.5q-4 8-2 17t11 15q20 12 41.5 21.5t43.5 17.5q39 14 79.5 21t81.5 8q31 1 61.5-2t60.5-10q10-2 15.5-8t5.5-16v0zM737 872q0 13 11 20t22 1q8-4 16-9t15-10q37-25 68-55 32-29 57.5-62.5t45.5-71.5 34-81q4-13-0.5-22.5t-16.5-11.5q-10-1-17 4t-11 16q-9 28-21 54.5t-28 51.5q-31 48-71 86.5t-90 67.5q-6 4-10 9t-4 13v0zM518-64q-30 0-58.5 3t-55.5 9q-10 2-15 7.5t-6 13.5q0 8 3 14t10 9q5 3 10.5 2.5t11.5-1.5q25-6 50.5-8.5t51.5-1.5q60 0 117 15t109 45q7 4 14 4.5t14-4.5q6-4 8-10t1-13q0-6-3.5-10t-8.5-7q-37-21-76.5-35.5t-80.5-22.5q-25-5-49-7t-47-2v0z" />
<glyph unicode="&#xe923;" glyph-name="pdf-icon" horiz-adv-x="826" d="M826 549q0 19-6.5 35t-20.5 30l-80 80t-80 79.5-80 79.5l-80 80q-13 14-29 20.5t-35 6.5h-326t-65-24-24-65v-848q0-39 24-63t63-24h652q38 0 62.5 24t24.5 63v526zM793 24q0-26-14.5-40.5t-41.5-14.5h-649q-26 0-40.5 14.5t-14.5 41.5v846q0 27 14.5 41.5t41.5 14.5h324q13 0 24-4.5t20-13.5q40-40 80-79 39-40 78.5-79.5l158.5-158.5q10-9 14.5-20t4.5-25v-523zM642 337q-2 0-4 0.5t-3 1.5q-29 5-57 3.5t-55-4.5q-6-1-10 0t-9 3q-36 22-58.5 54t-37.5 70q-1 3-1 5.5t1 4.5q5 27 8.5 54t4.5 55q0 5 0.5 10t-0.5 10q-2 23-21.5 32t-38.5-4q-4-3-6.5-6.5t-3.5-8.5q-3-12-3.5-23.5t0.5-23.5q2-27 7.5-53.5t12.5-51.5q1-5 1-9t-2-8q-17-40-36.5-78.5t-40.5-77.5q-6-12-15-21t-22-15q-22-11-42.5-25.5t-37.5-33.5q-5-6-10-13t-7-16q-2-6-2-12.5t6-10.5q14-9 25.5-12.5t28.5 5.5q10 5 18 12t15 15q18 20 33 42.5t28 45.5q2 4 4 6.5t6 3.5q42 13 85 23.5t86 17.5q5 1 9 0t8-3q11-6 23-11.5t24-9.5q20-7 40.5-12.5t42.5-5.5q9 0 17 3t12 12q8 17 5.5 35.5t-28.5 24.5v0zM192 160q-1-1-2-1h-2q1 5 3.5 9t5.5 8q11 17 25.5 31.5t30.5 27.5l1-1q-13-22-27.5-41t-34.5-33zM388 621q14-9 16-44.5t-11-55.5q-7 13-9 50t4 50zM331 292l-1 1q10 20 21 40t20 40q4 10 8.5 20.5t9.5 21.5q14-25 32-47t41-40q-34-7-66.5-16t-64.5-20v0zM654 295q-1-2-3-2.5t-5-1.5q-6-2-12.5-1.5t-13.5 1.5q-14 3-27.5 8.5t-26.5 11.5q19 2 38 2.5t38-5.5l4-2t3-2q3-2 4.5-4t0.5-5v0z" />
<glyph unicode="&#xe924;" glyph-name="plus-icon" d="M475 485q0 69 0.5 136t-0.5 134v82t1 82q0 17 8 27.5t22 12.5q13 2 22.5-3t16.5-16q3-7 3.5-15t0.5-16v-421q5-4 10.5-3.5t10.5 0.5h401q6 0 12-0.5t13-1.5q13-3 20-12t8-22q1-12-7.5-23t-20.5-13q-7-1-14-1h-13q-50-1-100-1-51 0-101 0.5t-100 0.5h-116q-4-6-3.5-10.5t0.5-8.5v-400q0-7-0.5-14t-1.5-13q-2-13-12-21.5t-23-8.5q-12 0-22.5 8.5t-12.5 21.5q-1 8-1.5 17t-0.5 17v198.5t1 99.5v99q0 3-0.5 6t-0.5 5q-4 4-9 3.5t-10-0.5q-50 1-100 1h-202q-50 0-100-1-26 0-39.5 9t-14.5 27q0 19 13.5 28.5t40.5 9.5h421z" />
<glyph unicode="&#xe925;" glyph-name="policies-icon" horiz-adv-x="931" d="M931 807q0 16 0.5 30.5t-1.5 28.5q-3 42-31 68t-69 26h-710q-55 0-87.5-34t-32.5-89v-901h798v106t-1 105q0 7 2 13t6 11q40 55 60.5 116.5t27.5 128.5q-25 6-49 9t-46 13v369h133zM773-41h-750q0 32-0.5 64t0.5 64q2 45 1.5 90t-0.5 91q0 73-1 147v295l2 148q0 33 29.5 57.5t67.5 19.5q48-7 69-38t12-79q-1-2-1-4.5v-5.5h570v-361q-27 9-50.5 23.5t-44.5 35.5q-45-44-100.5-62t-115.5-27q3-31 10-60.5t17-58.5q17-54 45.5-100.5t70.5-84.5q14-12 30.5-22t33.5-18q7-4 12.5-2t10.5 4q21 9 39 22.5t33 29.5q2 2 4 3.5t6-0.5v-171zM866 397q-6-48-20.5-92t-37.5-85q-21-37-49-67.5t-66-50.5q-11-5-19-4t-17 7q-53 33-86.5 81.5t-55.5 106.5q-9 25-16 50.5t-11 52.5q52 9 99.5 25.5t89.5 50.5q41-33 89-50t100-25v0zM231 831q1 30-8.5 56t-33.5 46q4 5 8.5 4.5t8.5-0.5h604q54 0 77-25t19-81h-675zM694 700h-596v-21h600q-2 6-1 11.5t-3 9.5zM102 192h371v23h-374q-2-6-1.5-11.5t4.5-11.5v0zM490 92q-46 0-91 1h-273q-11 0-19-4.5t-11-18.5h449q1 7 1.5 12.5t-2.5 9.5h-54zM441 578h-343v-20h345q-1 6 0 11t-2 9v0zM407 315q1 6 1.5 11t-1.5 10h-308q-2-6-2-11.5t2-9.5h308zM375 436v22h-276q-1-6-1.5-11.5t2.5-10.5h275zM553 354q14-53 38-98.5t64-82.5q13-12 22.5-12.5t22.5 10.5q41 37 65 83t37 99q-31 9-60.5 20.5t-56.5 26.5q-4 3-7.5 3t-7.5-2q-27-16-56.5-27.5t-60.5-19.5v0zM682 375q22-13 44.5-21.5t46.5-16.5q-13-40-31-75t-48-64q-9-8-15-8t-15 8q-31 28-49.5 63.5t-32.5 75.5q24 8 46 17t42 20q4 1 6.5 2t5.5-1v0z" />
<glyph unicode="&#xe926;" glyph-name="price2-icon" horiz-adv-x="791" d="M396 725h76q7 0 12.5-2t10.5-6q45-41 85-86 40-44 74.5-92.5t62.5-101.5 49-110q12-31 18.5-62.5t6.5-64.5q2-79-37.5-136t-118.5-89q-42-16-86-24.5t-88-11.5q-45-4-90-2.5t-90 7.5q-51 7-99.5 21.5t-91.5 45.5q-52 38-73 90t-16 115q2 38 12.5 75t25.5 72q12 30 27.5 59t32.5 57q40 66 88.5 125.5t106.5 110.5q6 5 12 7.5t13 2.5h77zM396 692h-69q-6 0-10.5-1.5t-8.5-5.5q-43-39-80-82.5t-70-91.5q-35-50-63.5-103.5t-46.5-112.5q-10-34-14.5-68t1.5-69q7-48 33.5-82t68.5-56q48-26 99-36t104-14q41-3 82-1.5t81 6.5q37 5 72.5 14t68.5 26q39 19 67 47.5t40 70.5q11 41 8 81t-16 79q-19 59-45 112-27 53-60.5 102t-73.5 94q-39 45-84 87-3 3-6.5 3.5t-7.5 0.5h-70zM395 756h-46t-45-1q-6 0-9.5 2t-6.5 6q-22 31-44.5 61.5t-44.5 60.5q-10 13-8 25t15 22q15 11 31.5 15.5t33.5 6.5q62 6 124 6t124-6q15-2 29.5-5.5t28.5-11.5q19-10 22-24.5t-10-31.5q-21-29-42-57.5t-41-56.5q-5-7-10-9.5t-13-1.5h-88zM224 906q21-29 41.5-57t40.5-55q3-4 6-5t7-1h152q6 0 9.5 2t6.5 6q13 18 26 35.5t26 35.5q7 10 14 19.5t14 18.5q-9 7-16.5 10t-21.5 5q-64 9-127.5 8.5t-126.5-6.5q-13-1-26-4t-25-12v0zM393 149q-57 13-81 37.5t-27 70.5q6 3 20 6t24 3q5-28 18-50t46-29v142q-13 4-25.5 8t-24.5 11q-23 11-35 29.5t-16 44.5q-5 44 21.5 75t64.5 35q4 0 7.5 1t7.5 1v21h26v-21q40-4 65-25.5t32-63.5q-11-4-22.5-4.5t-23.5-4.5q-4 23-15 39t-35 20v-127q65-23 87.5-49t16.5-76q-3-28-27-58t-78-35v-44h-26v43zM420 188q28 5 44 25t15 48q-1 24-17.5 41t-41.5 19v-133zM392 375v120q-21-1-37-16.5t-18-37.5q-2-26 13-44t42-22z" />
<glyph unicode="&#xe927;" glyph-name="price-icon" d="M874 809q-37 37-78 65-42 28-88 47t-95 29q-50 10-101 10v0q-51 0-100-10t-95-29-88-47-78-64q-37-37-65-79-28-41-47-87t-29-95q-10-50-10-101t10-100 29-95 47-88q28-41 64-78 36-36 78-64 42-29 87.5-48t95.5-29q49-10 100-10h1q51 0 100 10t95 29 88 47 78 64 64 78q29 42 48 88t29 95 10 100-10 100q-9 49-28.5 95.5t-47.5 88.5-64 78v0zM512-21v0q-48 0-93 9-46 9-88 26.5t-80 42.5q-39 26-72 59t-58 71q-26 39-43.5 81t-25.5 88q-9 45-9 92 0 99 36 185 37 85 100 148.5t149 99.5q85 36 184 36v0q97 0 183-37 85-37 149-100.5t101-149.5q36-85 36-182t-37-183q-37-85-100.5-149t-148.5-100q-86-37-183-37v0zM534 482q-7 1-13.5 2t-12.5 2q-13 1-26 3t-26 6q-41 11-62.5 35t-25.5 63q-4 38 15.5 69.5t53.5 43.5q16 5 31.5 7.5t30.5 2.5q20 0 39.5-4.5t37.5-13.5q26-13 44.5-34.5t28.5-51.5l1-1q2-6 5.5-12.5t14.5-9.5q1 0 3-0.5t4-0.5q5 0 10 2t8 6q6 6 7.5 14t-1.5 17q-22 59-63 94t-101 45h-3v2q1 21 0.5 42t-0.5 41q0 12-7 20t-19 8h-4q-7-1-15-6.5t-8-22.5v-82h-1q-9 0-18.5-1.5t-17.5-3.5q-52-11-87-48.5t-41-88.5q-7-58 16.5-101t74.5-68q27-13 55.5-18.5t53.5-7.5q16-2 31-5.5t29-9.5q49-20 63.5-61.5t9.5-76.5q-5-40-28.5-64.5t-62.5-31.5q-8-1-15.5-2t-15.5-1q-10 0-20.5 1t-22.5 3q-48 9-80 35t-50 69q-1 3-1.5 6.5t-1.5 6.5q-1 2-1.5 4t-0.5 4q-3 10-10 15.5t-16 5.5h-3t-3-1q-10-2-16-10.5t-4-20.5q0-2 0.5-3.5t0.5-2.5v-1q17-65 66-108t115-51q1-1 1.5-1h0.5v-79t3.5-20 22.5-14h1q13 0 19.5 8.5t6.5 26.5v75h1q33 1 59.5 10t47.5 26q27 21 43 53t19 70q3 39-9.5 74.5t-37.5 61.5q-23 24-53.5 39t-69.5 21v0z" />
<glyph unicode="&#xe928;" glyph-name="product-icon" horiz-adv-x="1062" d="M0 477v313q0 13 3.5 17.5t15.5 8.5q62 17 124 35t124 35.5 124 35.5l124 36q9 2 16.5 2t15.5-3q63-17 125-35 63-18 125-36t125-36q62-17 125-35 8-2 11.5-7t3.5-13v-637q0-9-4.5-13.5t-12.5-7.5q-57-23-115-45.5t-115-45.5q-69-27-137.5-54t-137.5-54q-5-2-9.5-2t-9.5 2q-62 25-125 49-62 25-124.5 49.5t-125.5 49.5q-62 24-125 49-15 6-18 10t-3 21v311zM550-18q59 23 119 46 59 24 118.5 47t118.5 46q59 24 119 47v604q-60-17-119-34-60-17-119-34t-119-34l-118-34v-654zM37 168q59-23 119-47 59-23 118.5-46.5t118.5-46.5q60-23 119-47v655q-59 17-119 34-59 17-118.5 34t-118.5 34q-60 17-119 34v-604zM89 798q1-3 2-3.5t2-0.5q54-15 107-30 54-16 107.5-31t106.5-31l108-30q5-2 9.5-1.5t10.5 1.5q45 13 90.5 26t91.5 26q61 17 121.5 34.5t120.5 35.5h4t2 4l-212 60q-55 16-109.5 31.5t-108.5 31.5q-6 1-11 1.5t-11-1.5q-5-2-11-3.5t-12-3.5q-30-9-60-17.5t-60-17.5q-72-20-144-40.5t-144-40.5v0z" />
<glyph unicode="&#xe929;" glyph-name="product-manager-icon" horiz-adv-x="1059" d="M777 712v-223q0-13-5-18t-18-5h-449q-12 0-17.5 5t-5.5 17v448q0 14 5 19t19 5h448q13 0 18-5t5-18v-225zM741 501v423h-423v-423h423zM494 183v-223q0-14-5-19t-18-5h-447q-14 0-19 5t-5 19v446q0 14 5 19t19 5h446q14 0 19-5t5-19v-223zM36-28h422v422h-422v-422zM1059 183v-224q0-13-5-18t-17-5h-450q-12 0-17 5t-5 17v451q0 11 5 16t16 5h452q11 0 16-5t5-16v-226zM601-28h422v422h-422v-422zM388 854v-121q0-10-6-16t-15-4q-6 2-10 6.5t-4 11.5v141q0 8 5 12.5t13 4.5h140q9 0 14-5t5-12q0-8-5.5-13t-13.5-5h-123zM106 324v-119q0-10-4.5-16t-12.5-6q-9 0-13.5 5.5t-4.5 17.5v132q0 12 5 17t17 5h133q10 0 15.5-5t5.5-13-5.5-13-15.5-5h-120zM671 324v-124q-1-8-6-12.5t-12-4.5-12 5-5 12v143q0 8 5 12.5t12 4.5h141q8 0 13-5.5t5-12.5q0-8-5-12.5t-14-5.5h-122z" />
<glyph unicode="&#xe92a;" glyph-name="questionmark-icon" d="M1024 447q0-105-41-198-40-94-110-163t-163-110q-94-40-200-40t-199 41q-93 40-162 110t-109 164-40 200q0 105 41 198t111 162 164 109q94 41 200 40 104-1 197-41 92-41 161-111t109-163q41-93 41-198zM512 920q-97 0-183-36-86-37-150-101t-101-150q-38-86-38-183-1-98 36-184 36-86 100-150t150-102 184-38q98-1 184 36t150 101 102 150 38 184-37 184-101 150-150 101q-86 38-184 38v0zM417 639q-9 10-17.5 19t-17.5 18q18 17 38.5 28t44.5 15q34 6 66 0t60-27q33-26 46.5-60t9.5-75q-3-38-22-65t-47-49q-13-9-26.5-18.5t-24.5-21.5q-11-13-16.5-27.5t-6.5-31.5v-38h-53q-1 35 4 67t32 58q13 13 27.5 25.5t29.5 22.5q31 20 41.5 52t3.5 67q-7 32-26.5 50.5t-50.5 24.5q-24 4-45-2t-39-23q-2-1-3-2l-3-3q-1 0-2-1.5t-3-2.5v0zM514 213q2-15-11.5-28t-25.5-13q-16 0-27 12.5t-11 29.5q-1 15 11 27t27 12q12 0 26-13t11-27v0z" />
<glyph unicode="&#xe92b;" glyph-name="message" d="M1024 706q0 45-30 75t-75 30h-271q-1 0-2.5 0.5t-3.5-0.5h-153q-73 0-150 0.5t-144-0.5h-95q-42-1-71-31t-29-73v-517q0-46 30-76t76-30h809q50 0 79.5 30t29.5 80v512zM983 189q0-28-18-46t-46-18h-813q-29 0-47 18t-18 47v517q0 27 18 45t45 18h813q30 0 48-18t18-48v-515zM806 571q29 26 58 51l58 50q9 8 9.5 15.5t-5.5 14.5-14 6.5-17-7.5q-26-23-53-45.5t-54-45.5q-20-18-39.5-36t-39.5-35l-98-86t-99-86q-2 2-4 3.5t-3 2.5q-39 34-78 67-39 34-77.5 67t-77.5 67q-38 33-77 67-18 16-36.5 31.5t-36.5 30.5q-7 7-15.5 6.5t-14.5-6.5q-5-7-4.5-15t8.5-15l4-4t4-3q49-42 97-84 49-43 97.5-85t97.5-84 97-84q12-9 19-9t19 10l124 108q38 33 75.5 66.5t75.5 66.5v0zM923 210q-46 40-91.5 80.5t-91.5 80.5l-64 56q-8-7-15.5-13.5t-14.5-13.5l2-2t1-2q31-27 63-54 31-28 62-55l62-54q31-28 62-55 2-1 4.5-2.5t4.5-1.5q8-2 14 0t9 9q4 8 2 15t-9 12zM337 419q-60-51-119-102t-119-102q-9-9-11-17.5t4-15.5q7-8 15.5-7.5t18.5 9.5q1 0 1.5 1t1.5 1q42 37 83.5 73t83.5 72q20 17 40.5 35t41.5 36q-8 7-15.5 13t-15.5 13q-3-3-5.5-5t-4.5-4v0z" />
<glyph unicode="&#xe92c;" glyph-name="report-icon" horiz-adv-x="939" d="M832 491v41q32 3 61.5-18t39.5-54q3-8 4.5-17.5t1.5-18.5v-379q-1-48-32-78.5t-79-30.5h-718q-48 0-79 31t-31 78v803q0 50 31 81t81 31q68 0 136-1h272q68 1 136 1 47 0 79.5-32t32.5-81v-797q0-6 0.5-12.5t1.5-12.5q7-23 26.5-36t42.5-10q25 3 40.5 20t15.5 43q1 63 0.5 126t-0.5 126v60.5t1 61.5q1 29-14 50.5t-50 24.5v0zM747-21q-16 21-19 44.5t-3 47.5v194q0 98 0.5 195.5t0.5 194.5v195q0 30-18.5 48.5t-47.5 18.5h-550q-30 0-48.5-18t-18.5-48v-807q0-6 1-12t3-11q7-21 24-31.5t42-10.5h634zM299 155h42v586h-42v-586zM555 741v-586h42v586h-42zM172 155h41v313h-41v-313zM428 155h41v313h-41v-313z" />
<glyph unicode="&#xe92d;" glyph-name="reports-icon" horiz-adv-x="836" d="M823-25v1h-120v528q0 17-5.5 22.5t-22.5 5.5h-92q-12 0-21-3t-9-16q0-4 1-7.5t4-5.5q3-3 9-4.5t16-1.5h82v-518h-127v698q0 13-6 18.5t-18 5.5h-104q-5 0-9.5-1t-8.5-4q-2-3-3.5-6.5t-1.5-7.5q1-9 6-14t16-5h1q4 1 9.5 1h78.5v-685h-126v703.5t-1 5.5q-1 7-6 11t-12 4v0h-1q-7 0-11.5-3.5t-6.5-11.5q-1-2-1-4.5v-314.5h-91q-5 0-9-1t-7-4q-2-3-3.5-6.5t-1.5-8.5q0-8 5.5-13t15.5-5h90v-352h-126v360q0 4-0.5 7.5t-0.5 6.5q-1 7-5.5 11t-12.5 5h-1q-7 0-12-4.5t-6-11.5q-1-2-1-4.5v-370.5h-113q-5 0-8.5-1t-6.5-3v182q1 67 0.5 135.5t-0.5 135.5v227.5t1 115.5q0 57 1 114v30t-2 31q-1 9-5.5 13.5t-12.5 4.5q-9 0-14-5.5t-5-13.5v-522q-1-35-1-73.5t1-79.5v-130t-2-133q0-10 0.5-20.5t1.5-21.5v-6q0-8 5.5-13t12.5-5q2 0 4 0.5t3 1.5q4 1 6 2.5t3 3.5q2-3 6-5.5t11-2.5h484q38 0 77-0.5t78-0.5h131v1q6 2 9.5 7t3.5 12q0 6-3.5 11.5t-9.5 7.5v0z" />
<glyph unicode="&#xe92e;" glyph-name="revenue-icon" horiz-adv-x="1023" d="M859 33q0 9-5 14t-12 5-11.5-5-4.5-14v-48q0-11-2.5-13.5t-13.5-2.5h-751q-15 0-20.5 5.5t-5.5 19.5v565q0 6 1 12.5t4 12.5q4 6 9 9.5t13 3.5q10-1 20.5-0.5t21.5 0.5h694q22 0 25.5-4.5t4.5-26.5v-98q0-9 4-14.5t12-5.5 12 5.5 4 15.5v97q0 8-1 16t-4 16q-6 18-15.5 25t-27.5 7h-753q-8 0-14.5-2.5t-12.5-6.5q-13-12-21.5-27t-8.5-33v-568q0-24 16.5-40.5t40.5-16.5h755q20 0 30.5 8.5t14.5 28.5q3 15 2 30t0 30v0zM294 672q-8-7-8-14.5t6-12.5q5-5 11.5-4t13.5 7q50 47 100.5 94t100.5 94q9 9 18.5 17.5t18.5 17.5l8-12q32-49 64.5-99t64.5-100q5-7 11-9t12 2q7 4 8 11t-3 14q-5 7-10 15t-10 15q-31 48-61.5 95.5t-61.5 95.5q-8 13-16 14t-19-9l-116-108-132-124zM156 642q3 1 5.5 4t4.5 6q33 48 66.5 96.5t66.5 96.5q13 19 25.5 37t24.5 37q4-4 7.5-6.5t6.5-5.5q10-8 19-16t19-16q4-3 8-5t9 0q10 3 11.5 12.5t-6.5 16.5l-60 52q-11 10-18.5 9t-16.5-14q-38-55-75.5-110t-75.5-110q-10-15-20-29.5t-20-28.5q-4-5-4-10.5t4-10.5 8.5-5.5 10.5 0.5v0zM1022 291q-9 58-56 99t-107 41h-99q-7 0-12-5t-5-11q0-7 5-12t12-5v0h100q61 0 99.5-45.5t29.5-105.5q-7-51-43.5-82t-87.5-31h-98q-7 0-12-5t-5-12q0-6 5-11t12-5v0h98q75 0 125 58t39 132v0zM432 99q29 8 49.5 24.5t29.5 46.5q11 36 0 65t-41 45q-10 6-20.5 10t-21.5 7q-5 1-7 3.5t-1 7.5v146h3t2-1q18-3 33-11.5t29-20.5q6-6 13-5.5t12 5.5q4 6 3.5 12.5t-6.5 12.5q-6 5-12.5 10t-13.5 9q-15 9-30.5 14t-32.5 9v27q0 7-4.5 11.5t-10.5 4.5q-7 0-11.5-3.5t-5.5-10.5q-1-5-1-9.5v-9.5q1-5-1-7.5t-8-4.5q-31-5-52.5-22t-32.5-47q-12-37-1.5-73.5t54.5-55.5q8-3 16.5-6t16.5-6q5-1 7-3.5t2-7.5q-1-26-1-51.5v-91.5q-23 1-44.5 7t-39.5 21q-6 6-13 5.5t-11-6.5q-5-5-4-12t7-12q9-8 19-13t21-9q15-5 31.5-7.5t33.5-3.5v-36q1-10 5.5-15.5t11.5-5.5q8 0 12 5.5t4 14.5q1 10 0.5 20t-0.5 20q1 0 1.5 0.5l0.5 0.5q2 1 5 1.5t5 1.5v0zM386 310q-34 4-51 24t-15 53q1 28 19.5 47t46.5 20v-144zM420 264q13-3 25-7.5t22-13.5q12-12 14-26t0-29q-4-23-22-41t-39-19v136z" />
<glyph unicode="&#xe92f;" glyph-name="right-arrow-icon" horiz-adv-x="503" d="M12 950q12 11 27.5 10t25.5-12l429-475q9-11 9-25t-9-25l-429-475q-10-11-25.5-12t-27.5 10q-11 10-12 25.5t10 26.5l406 450-406 450q-5 5-7.5 11.5t-2.5 13.5 3 14.5 9 12.5v0z" />
<glyph unicode="&#xe930;" glyph-name="notification" d="M703 611q-22-13-43.5-26t-42.5-27q-67-42-134.5-84t-134.5-83q-6-4-7.5-8t-0.5-10q8-44 15.5-88.5t15.5-88.5q2-11-1.5-19t-12.5-11q-8-3-15.5 0t-13.5 13q-27 43-54 86.5t-54 86.5q-3 5-6.5 8t-9.5 5q-39 13-78.5 25.5t-78.5 24.5q-12 4-21.5 11t-16.5 17q-16 23-5.5 44.5t28.5 28.5q82 31 163 63t162 64.5 162 65.5 162 65q38 16 77 31 38 16 76 31.5t77 31.5q38 15 76 31 8 3 15.5 4t14.5-5 7.5-13.5-0.5-15.5q-12-66-23-131t-23-130l-44-256t-22-127.5-22-127.5q-2-11-3.5-22t-4.5-22q-8-42-49-55.5t-74 13.5q-50 42-100 84.5t-101 84.5l-4 2q-17-16-34.5-32t-34.5-32-34.5-32-34.5-33q-8-7-15-8.5t-14 2.5q-8 4-10.5 10.5t-1.5 16.5l8 78t8 77q2 21 4.5 42.5t4.5 42.5q0 6 3.5 10t7.5 8q37 35 73 69t72.5 68.5 72.5 68.5l72 68 2 2t1 2q1 0 1.5 1t-0.5 1q-1 1-1.5 0l-0.5-1zM426 126q3 2 5.5 4t4.5 4q25 23 49.5 46.5t49.5 46.5q10 8 18.5 8.5t18.5-7.5q45-38 90.5-76t90.5-76q10-8 19.5-16.5t20.5-16.5q14-12 26.5-7.5t17.5 22.5q1 1 1 3v3q7 39 13.5 77.5t13.5 77.5q13 73 25.5 146t25.5 146q11 68 23 135.5t23 135.5q3 15 5.5 30t5.5 32q-116-47-232-95-116-47-232-93.5t-232-92.5q-115-46-232-92 1-8 6-9.5t10-3.5q42-13 84-26.5t84-26.5q8-3 13.5-7t9.5-11l26-42t28-44q-1 5-1 8t-1 5l-12 72q-2 13 0.5 19t13.5 12q53 34 106 67 54 33 107 66.5t107 67.5l106 66q37 23 73 45.5t72 45.5l12 6t13 1q6-2 10.5-6t5.5-10q2-9-1-15t-9-12l-114-108t-114.5-108-114.5-108l-114-108q-4-3-6-7t-2-9q-4-41-8.5-82t-8.5-83v0zM708 615v-0.5t-1-0.5q1 0 1-0.5v-0.5l1 1-1 1zM708 615l1-1-1-1v0.5t-1 0.5q1 0 1 0.5v0.5zM703 611l0.5 1t1.5 0q1 0 0.5-1t-1.5-1l-0.5 0.5z" />
<glyph unicode="&#xe931;" glyph-name="shipping-action-icon" d="M614 755h-579v-443q2-1 5-1h230q8 1 13-2.5t7-10.5q2-8-3.5-14.5t-15.5-6.5h-250q-11 0-16 5t-5 17v471q0 5 1.5 9t5.5 8q41 40 82 81l82 82q5 5 10.5 7.5t12.5 2.5h261q7 0 12.5-2.5t10.5-6.5q40-41 80.5-81.5l81.5-81.5q4-4 6.5-8.5t2.5-11.5q-1-23-0.5-46.5t0.5-46.5q0-10-4.5-15.5t-13.5-5.5q-8 0-12.5 5.5t-4.5 15.5v80zM307 926h-106q-4 0-6.5-1.5t-4.5-4.5q-32-31-63-62l-62-62q-1-2-3-3t-1-3h246v136zM342 790h248q-28 27-54.5 53.5l-53.5 53.5q-7 7-13.5 15.5t-15.5 11.5q-9 4-19.5 3t-20.5-1h-71v-136zM376 261q-1 65 25 124t70 103 102 70 123 26q68 1 127-25 60-26 104.5-69.5t70.5-102.5 26-125q0-67-26-126-25-59-69-103.5t-103-70.5-125-26q-67 0-126 26-59 25-103.5 69.5t-70.5 103.5q-25 59-25 126v0zM700 550q-62 0-115-22-53-23-92-62.5t-61-92.5-22-115q0-60 22-113 23-52 62.5-91t92.5-62q52-22 113-22t114 23q53 22 92 61.5t61 92.5q23 53 23 114t-23 113q-22 53-61.5 92t-92.5 62q-53 22-113 22zM683 390l-100-100q-1-2-3-3.5t-4-3.5q-6-6-13-6t-12 5q-5 6-5 13t7 13l70 70q15 16 31 32t32 31q7 7 13.5 7.5t13.5-6.5q34-33 67-66.5t66-66.5q7-7 7.5-14.5t-5.5-12.5-13-4.5-13 7.5q-26 25-52 51l-53 53v-263q0-9-5-14.5t-13-4.5q-7 0-11.5 5t-4.5 14v264z" />
<glyph unicode="&#xe932;" glyph-name="shipping-icon" horiz-adv-x="1138" d="M476-64h-451q-14 0-19.5 5.5t-5.5 19.5v633q0 6 2 10.5t7 8.5l232 188q7 6 14.5 8.5t16.5 2.5h250q7 0 11.5 2t9.5 8q40 55 93.5 89t120.5 45q88 13 162-14t134-93q45-49 67-108t17-126q-2-46-15-86t-35.5-74.5-53.5-62.5q-31-29-71-52-6-3-8.5-6.5t-2.5-10.5q1-44 1-88v-279q-1-10-5.5-15t-14.5-5h-456zM915 319q-43-14-86-17t-87 7q-43 9-81 29t-73 50v-25q0-14-5-19.5t-20-5.5h-173q-16 0-21 5.5t-5 20.5v214q-3 0-4.5 0.5t-2.5 0.5h-311q-6 0-8-2.5t-1-8.5v-595h878v346zM516 633q0-61 21-115 22-53 60-92.5t90-62.5 111-25q64-1 119 20t96 60 64 93q24 53 25 116 1 61-21 115t-61 94-92 63-115 24q-62 2-116-20t-94-61-63-93q-23-53-24-116v0zM418 776h-138q-6 0-11-1.5t-10-5.5q-27-23-54.5-45t-55.5-45q-19-15-38.5-31t-39.5-32h298q12 40 24 79.5t25 80.5zM401 578v-202h151v38q1 6-1 11.5t-6 10.5q-16 21-28.5 44.5t-20.5 49.5q-4 12-7 24l-6 24h-82zM407 616h73q-1 20 0.5 40.5t5.5 40.5q5 20 11.5 39.5t16.5 39.5h-49q-5 0-7.5-2t-4.5-7q-7-22-13.5-44.5t-13.5-44.5q-5-15-9.5-31t-9.5-31v0zM219 87h91q11 0 16.5-4.5t5.5-12.5q0-9-5.5-14t-16.5-5h-183q-11 0-17 5t-6 13q1 9 6.5 13.5t16.5 4.5h92zM171 126h-46q-9 0-14.5 5t-6.5 13q0 8 5.5 13t14.5 5h96q9 0 14.5-4.5t5.5-12.5q0-9-5-14t-15-5h-49zM749 536q53 54 105.5 106.5t105.5 104.5l8 8q6 5 12 5t12-5 6.5-12-4.5-13l-226-226q-11-11-18.5-11t-19.5 11q-22 23-45 46t-46 45q-5 6-6 12t2 12q4 6 9.5 7.5t11.5 0.5q4-1 6.5-3.5t4.5-5.5q21-20 41-40.5t41-41.5v0z" />
<glyph unicode="&#xe933;" glyph-name="shippingnew-icon" horiz-adv-x="1445" d="M903 118v781h-843v-29q0-13-8.5-22t-20.5-9q-13 0-21.5 9t-9.5 22v54q0 18 9 27t27 9h889q6 0 11.5-0.5t10.5-3.5q10-5 13-13t3-19v-203q4-3 7.5-2.5t6.5 0.5q63-1 126-1h126q18 0 25-5t14-22q18-50 36.5-100t36.5-100q2-7 6-10.5t12-2.5q13 1 26.5 0.5t26.5-0.5q16 0 24.5-8.5t8.5-23.5v-357q0-15-8.5-24t-22.5-8q-16 1-25.5-3.5t-15.5-22.5q-16-46-58-71.5t-92-23.5q-46 3-83.5 33.5t-49.5 76.5q-1 3-2 5.5t-2 5.5h-593q-8 0-12-3t-6-11q-14-49-55-78.5t-95-28.5q-47 1-86 32t-53 79q0 2-1 4.5t-2 5.5h-152q-14 1-22.5 9t-8.5 21v181q0 12 9 20.5t21 8.5q13 1 21.5-8t8.5-22v-149h124q7 30 24 54.5t44 42.5q19 12 40.5 17.5t43.5 4.5q53-2 90-33t53-86h424zM1087 117q13 48 42.5 79t78.5 38q68 10 111.5-22t65.5-98v303q-4 2-7.5 1.5t-7.5-0.5h-310q-20 0-28 8.5t-8 27.5v194q0 2 0.5 5t-1.5 5h-59v-541h123zM1085 658v-179h196l-34 90t-33 89h-129zM331 177q-37 0-63.5-26.5t-26.5-63.5 26.5-64 63.5-27 64 26.5 26 64.5q0 38-26 64t-64 26v0zM1325 86q0 38-26 64.5t-64 26.5-64.5-26-26.5-64q0-37 27-64t64-27 63.5 26.5 26.5 63.5v0zM361 719h-325q-10 0-19 3.5t-14 13.5q-4 8-3 15.5t6 15.5q6 8 14 10t17 2h648q18 0 28-8t10-22-10-22-28-8h-324zM301 599h-268q-10 0-17.5 3.5t-11.5 12.5q-4 7-4 14.5t5 14.5q5 9 13 12t17 3h533q16 0 25-8.5t9-23.5q-1-13-9-20.5t-23-7.5h-269zM240 478h-207q-12 0-20.5 6t-11.5 17q-2 10 1 17.5t11 14.5q4 3 9 4t10 1h418q14 0 23-8.5t9-20.5q0-13-9-22t-23-9h-210zM180 357h-145q-10 0-18.5 4t-13.5 14q-4 8-3 15.5t6 14.5q6 8 14 10.5t17 2.5h285q19 0 29-7.5t10-22.5q1-15-9.5-22.5t-28.5-8.5h-143z" />
<glyph unicode="&#xe934;" glyph-name="storefront-icon" horiz-adv-x="1094" d="M1093 697q0 5-1 10.5t-4 10.5l-112 224q-5 10-11.5 14t-17.5 4h-200q-100-1-200.5-1t-200.5 1h-201q-9 0-15.5-3.5t-10.5-12.5q-22-44-43-88t-45-87q-17-31-25.5-62.5t-4.5-66.5q1-3 0.5-6t-0.5-5q0-38 15.5-68.5t45.5-52.5q4-3 6-7t2-9v-532q0-14 4.5-19t18.5-5h908q14 0 19 5t5 19v532q0 5 2 9t6 7q25 19 39.5 43t18.5 55q3 23 2.5 45.5t-0.5 45.5v0zM876 925h68.5t3.5-4q25-50 50-99.5t50-100.5h-223q-11 51-21.5 102t-21.5 102h94zM564 925h183q10-51 21-101.5t22-101.5h-226v203zM564 686h231q-1-22 0-44.5t-4-44.5q-11-40-46.5-65t-76.5-20q-44 6-73 37t-30 74q-1 16-1 31.5v31.5zM518 576q-18-35-53.5-52.5t-73.5-8.5q-39 8-64.5 39t-26.5 71v62h230q-1-28 0.5-56.5t-12.5-54.5v0zM529 925v-204h-225l44 204h181zM50 729q24 47 47.5 94t46.5 95q2 3 4 5.5t7 2.5q38-1 76.5-1h81.5l-44-204h-221q-1 2 0 4l2 4zM38 607q-4 19-3 39t0 40h231q-1-30-0.5-61t-17.5-59q-19-30-52-44.5t-68-7.5q-34 7-59.5 32.5t-30.5 60.5v0zM444-29h-203v374h203v-374zM990-29h-511v388q0 11-5 16t-16 5h-232q-11 0-15.5-5t-4.5-18v-386h-102v513q58-14 102.5 4t76.5 68q22-37 55-57.5t77-20.5 76.5 20.5 55.5 58.5q23-38 56-58.5t77-20.5 76.5 20.5 54.5 58.5q32-50 76.5-68.5t102.5-4.5v-513zM1041 566q-21-32-56-46t-73-4q-36 10-59.5 40.5t-23.5 68.5v61h230q-1-30-0.5-61t-17.5-59zM867 380h-282q-11 0-16-5t-5-16v-214q0-12 5-16.5t17-4.5h282q11 0 15.5 4.5t4.5 15.5v215q0 11-4.5 16t-16.5 5v0zM854 159h-255v186h255v-186z" />
<glyph unicode="&#xe935;" glyph-name="store-settings-icon" d="M506-64q-13 1-27.5 0t-29.5 2q-23 3-38.5 20t-17.5 40q-1 11-2.5 23t-2.5 24q0 3-1.5 5t-5.5 4q-15 4-30 10.5t-29 13.5q-4 3-7 2.5t-6-3.5l-20-16t-20-15q-18-14-41.5-13t-40.5 17q-19 18-38.5 37.5t-38.5 39.5q-16 16-16.5 40t12.5 42q8 10 15.5 19.5t15.5 19.5q3 3 4 6.5t-2 8.5q-7 12-12.5 25t-8.5 26q-2 6-6 8.5t-10 2.5q-12 2-24.5 3t-24.5 3q-22 4-37 22t-16 40v106q1 24 17.5 42t42.5 21q10 1 20.5 2.5t21.5 1.5q4 1 6.5 2.5t3.5 6.5q5 16 11 32t14 31q2 4 1.5 6.5t-2.5 5.5q-8 9-15 18.5t-14 18.5q-15 19-13.5 43t17.5 41l37.5 37.5t37.5 36.5q17 17 41 18.5t42-12.5l36-28q2-2 4.5-2.5t4.5 1.5q18 9 36 17t37 13q3 1 4.5 3t2.5 6l2 22t3 23q4 22 21.5 37.5t40.5 16.5h107q23-1 41-18t21-42q1-10 2.5-19.5t1.5-19.5q1-4 2.5-6t5.5-3q17-5 34-12.5t34-15.5q3-2 6-1.5t6 2.5q8 7 16 13t16 13q19 14 43 12.5t40-17.5q20-19 39-38t37-38q16-16 17-40t-12-42q-7-9-14-17.5t-14-17.5q-2-3-2.5-5.5t1.5-5.5q8-16 14.5-32t11.5-32q1-4 3-5.5t5-1.5q10-1 20-2.5t20-1.5q25-2 42.5-20.5t17.5-43.5q1-26 1-52t-1-53q0-26-18-43.5t-47-20.5q-8-1-15.5-2.5t-15.5-1.5q-7 0-10-3t-5-9q-5-15-11-29.5t-14-28.5q-2-5-1.5-8.5t3.5-7.5q7-8 14-17l14-18q15-19 13.5-43t-18.5-41q-18-19-36.5-37.5t-37.5-36.5q-17-17-41-18.5t-43 13.5q-10 7-19.5 14.5t-18.5 15.5q-3 3-6 3t-6-2q-15-8-31-14.5t-32-10.5q-6-2-8-5.5t-3-8.5q-1-12-2-23.5t-3-22.5q-4-24-22-39.5t-42-16.5h-55zM897 727q1 7-2.5 12t-8.5 9q-18 18-36 36.5t-36 36.5q-10 9-19 10t-20-8-22.5-18-22.5-17q-5-5-10.5-5.5t-11.5 2.5q-22 13-45 22.5t-47 16.5q-6 1-9.5 5.5t-4.5 10.5q-1 12-2.5 23.5t-2.5 23.5q-3 26-10 32t-33 6h-91q-15 0-21.5-5.5t-8.5-19.5q-2-15-4-29.5t-3-29.5q-1-7-5-11.5t-10-6.5q-24-6-47-15.5t-44-22.5q-7-4-13-3.5t-13 5.5q-11 9-22.5 18t-22.5 18q-11 8-20 8t-19-10l-74-74q-10-10-10.5-19t8.5-20q9-12 18.5-24t19.5-24q5-6 5.5-12t-3.5-13q-11-20-19-41.5t-14-43.5q-2-8-7-11.5t-13-4.5q-14-1-28.5-2.5t-29.5-3.5q-16-2-22-9.5t-6-23.5v-96q0-19 7-26.5t26-8.5q14-2 29-3.5t29-3.5q8-1 12.5-4.5t6.5-10.5q6-21 14-40t18-38q4-6 3.5-12t-5.5-12q-10-12-20-25l-20-26q-10-12-9.5-21t11.5-19q18-19 36.5-37t36.5-36q10-10 19-10.5t20 7.5q13 11 26 21t26 21q6 4 12 4.5t12-3.5q18-10 37-18t39-15q12-4 15.5-8.5t5.5-17.5q1-16 3-32l4-32q2-11 7.5-16t15.5-5q29-1 57.5-1t57.5 1q10 0 16 5.5t7 16.5q3 17 4.5 33t3.5 33q1 7 4.5 12t10.5 7q24 7 46 15.5t43 20.5q7 4 13 3t11-6q12-9 24-19t25-19q11-9 20-8.5t19 10.5q19 18 37 36.5t36 36.5q10 10 10.5 19t-7.5 20q-10 13-19.5 25t-19.5 25q-5 5-5.5 10.5t3.5 12.5q12 20 21 42t15 45q2 7 6.5 10t10.5 4q16 2 31 3.5t30 3.5q13 2 19.5 8.5t6.5 19.5v107q-1 13-7 19.5t-19 8.5q-14 2-28 3.5t-29 2.5q-9 1-13.5 4.5t-6.5 12.5q-6 22-14.5 42.5t-19.5 40.5q-4 7-3.5 13t5.5 13l36 44q3 4 5 8.5t2 10.5v0zM365 449q1 60 45 103.5t104 42.5 103-45.5 42-103.5q-1-60-45.5-103t-104.5-42q-58 1-101.5 45t-42.5 103v0zM513 561q-50 0-82-32t-32-81 32-80.5 80-32.5q49 0 81 32t32 80q1 49-31 81.5t-80 32.5v0z" />
<glyph unicode="&#xe936;" glyph-name="tools-icon" d="M878 328q-29 8-58 7t-58-11q-3-1-6-1t-6 3q-16 17-57.5 58.5t-81.5 82.5v0l-80 80q-41 40-82.5 81.5t-58.5 57.5q-3 4-3 6.5t1 5.5q10 29 11 58t-7 58q-13 48-44 81t-70.5 49.5-83.5 15.5-83-20q-11-6-12.5-13.5t7.5-16.5q17-16 33.5-32.5l61.5-61.5q-14-14-27-28t-27-28q0 1-0.5 1t-1.5 1q-24 23-47.5 46.5l-46.5 46.5q-8 8-16.5 7.5t-13.5-10.5q-25-56-20-109t41-101q39-51 100-68.5t122 2.5q5 1 8 0.5t7-3.5q10-11 31-32t47-46.5 52-52.5q27-26 49-48 21-22 48-49 27-26 52.5-51.5t46.5-47.5l31-31q4-4 4.5-7t-0.5-7q-20-62-2.5-123t68.5-99q48-37 101-42t109 21q10 4 10.5 12.5t-7.5 16.5q-23 23-46.5 47t-46.5 47q-1 1-1 1.5v0.5q13 14 27 27t28 27q6-6 13.5-13t14.5-15l67-67q9-9 16.5-7.5t12.5 12.5q19 39 20 83t-15.5 83.5-49.5 70.5-81 44v0zM982 77q-2 3-4.5 6t-4.5 5q-20 21-40.5 41.5l-40.5 40.5q-7 8-13.5 8t-14.5-8l-64-64q-15-15-15-22.5t15-21.5q22-20 43-40.5t42-40.5q-3-4-5-4.5t-3-1.5q-17-5-33.5-7t-34.5 0q-54 5-100.5 49t-48.5 114q-1 19 3 36.5t11 34.5q3 7 2 13t-7 12l-89 89t-56 57q-28 27-44 43t-43 44q-28 27-57 56l-89 89q-6 6-12 7t-13-2q-17-7-35-11t-36-3q-70 3-114 49.5t-49 99.5q-2 18 0 34.5t7 33.5q1 1 1.5 3t3.5 5q21-21 41-42t41-42q14-16 21.5-16t22.5 15q15 16 31.5 32t32.5 32q8 8 8 14.5t-8 13.5q-20 21-40.5 41t-41.5 40q-2 2-5 4.5t-6 4.5q16 7 31 9.5t30 2.5q68-2 115-47.5t51-113.5q1-17-2.5-34.5t-9.5-33.5q-5-13-4.5-17.5t10.5-13.5l34-34t48.5-48 53.5-54q28-27 50-50 23-22 50-50 28-27 54.5-53.5t47.5-48.5l34-34q9-10 13.5-10.5t17.5 4.5q16 6 33.5 9.5t34.5 2.5q68-4 113.5-51t47.5-115q0-15-2.5-30t-9.5-31v0z" />
<glyph unicode="&#xe937;" glyph-name="quote" d="M782 704h-146q-29 0-47.5 18.5t-19.5 47.5v145q-2 2-4.5 2h-421.5q-15 0-21.5-6.5t-6.5-20.5v-753q0-16 6.5-22.5t22.5-6.5h419q12 0 18.5-4t8.5-12q3-12-4-20t-21-8h-425q-25 0-43 14.5t-24 38.5q0 3-0.5 7t-0.5 7v760q0 31 18.5 50t49.5 19h437q12 0 21.5-4t17.5-12l194-194q7-7 11-16t4-20q0-71 0.5-142t-0.5-141q0-10-4-16.5t-12-8.5q-8-1-14.5 2t-9.5 10q-3 4-3 8.5v277.5zM748 747l-136 136v-57.5t1-57.5q0-9 6-15t15-6h114zM449 562h-188q-11 0-17 4.5t-8 12.5q-1 11 5.5 18.5t18.5 7.5q18 1 35.5 0.5t34.5-0.5h306q12 0 19-6t7-16-7-15.5-19-5.5h-187zM448 420h-187q-11 0-17.5 5t-7.5 14q-1 11 6 17.5t19 6.5q27 1 53.5 1h318.5q13 0 20.5-5.5t7.5-14.5q1-11-5.5-17.5t-19.5-6.5q-35-1-70-0.5t-71 0.5h-47zM449 277h-94t-94 1q-12 0-19 6t-6 17q1 10 7.5 15t17.5 5h374q11 0 17.5-4t8.5-12q3-12-4-19.5t-19-7.5q-26-1-52-1h-137zM824 113h-21q-26-1-48 17.5t-26 46.5q-2 16 3 29.5t16 25.5 25 18.5 31 5.5h21v9q0 10-0.5 20t0.5 20q0 6 4 10t9 5q6 1 11-2t7-9v-52q1-1 2-1h61q9 0 14-6t2-14q-1-5-5-8.5t-10-3.5h-63v-79q4 0 9-0.5t10 0.5q10 0 19.5-2.5t18.5-7.5q15-9 25-22t12-31q3-16-2-30.5t-16-26.5q-12-12-25.5-18.5t-30.5-5.5h-21v-48q0-6-4-10.5t-10-5.5q-5-1-10 2.5t-7 8.5v7q0 11-0.5 22.5t-0.5 22.5q-1 1-2 1h-76q-8 0-12.5 4.5t-4.5 11.5 4.5 11.5 11.5 4.5h79v80zM824 224h-23q-18 0-28.5-9.5t-11.5-27.5q-2-14 5-25t20-15q9-3 19-2.5t19 0.5v79zM857 113v-80h23q18 0 28.5 9.5t11.5 26.5q2 15-5 26t-20 16q-4 1-8.5 1.5t-8.5 0.5h-21z" />
<glyph unicode="&#xe938;" glyph-name="uparrow-2-icon" d="M987 196q-7 0-13.5 2.5t-11.5 7.5l-450 406-450-406q-11-10-26.5-9.5t-25.5 12.5q-11 11-10 26.5t12 25.5l475 429q11 10 25 10t25-10l475-429q11-10 12-25.5t-10-26.5q-5-7-12.5-10t-14.5-3v0z" />
<glyph unicode="&#xe939;" glyph-name="up-arrow-icon" d="M0 192h1024l-512 512z" />
<glyph unicode="&#xe93a;" glyph-name="upload-image-icon" d="M518 960q4-3 8.5-6t7.5-7q51-51 102.5-102t101.5-102q3-3 6-6.5t4-7.5q2-8-1-15t-10-12q-7-4-15-3t-14 8q-22 21-43.5 43t-43.5 43q-19 19-38 38.5t-38 38.5q-2 1-4 3l-5 5v-640q0-3-0.5-7t-1.5-7q-3-8-10-12.5t-15-3.5-14 7.5-7 14.5v648l-9-9q-41-40-81.5-80.5t-80.5-81.5q-5-4-10-7.5t-12-2.5-12 4.5-8 9.5q-3 7-2 13.5t6 12.5l4 4t5 4l100.5 100.5t100.5 101.5q4 3 8.5 6.5t8.5 6.5h12zM512-64h-390q-52 0-87 35t-35 87v170q0 13 6.5 20.5t17.5 7.5 17.5-8 6.5-21v-168q0-33 21-54t53-21h780q32 0 53 21t21 53v172q0 11 6 18t15 8 16.5-4 9.5-14q1-3 1-5.5v-176.5q0-50-35-85t-85-35h-392z" />
<glyph unicode="&#xe93b;" glyph-name="user-icon" horiz-adv-x="1026" d="M804 599q-1-30-0.5-60t-4.5-60q-7-42-27-80-19-38-47.5-68.5t-65.5-51.5q-37-22-79-31-58-13-114-3-56 9-103 38t-81 75q-34 45-48 103-4 16-6 32.5t-2 33.5q0 42-1 83.5t3 82.5q7 84 49.5 144t117.5 96q64 30 130 27 67-4 124-34t97-83q41-53 53-123 5-30 4.5-60.5t0.5-60.5v0zM763 598q-1 28 0 55.5t-4 54.5q-8 55-37 98-28 43-70 70.5t-93 37.5-104-3q-38-9-71-30t-57.5-50-40.5-65q-15-35-17-74-3-43-2.5-85.5t0.5-84.5q1-14 3-28t5-28q12-44 38-81 27-36 63.5-61t80.5-36 91-4q39 5 74 22 35 18 63 44t47 60 26 72q5 30 4 59t1 57v0zM512-64h-388q-53 0-88.5 35t-35.5 89v82q-1 31 12.5 54.5t38.5 41.5q16 10 33 17.5t35 12.5q28 7 55 14.5t55 15.5q11 3 19-1t10-13q2-8-3-15.5t-15-10.5l-60-16t-59-17q-17-5-33-13t-29-21q-9-9-13.5-20t-4.5-24v-88q0-35 23.5-58.5t58.5-23.5h777q35 0 58 20.5t25 54.5q2 25 1.5 49.5t-0.5 49.5q-1 15-8.5 27.5t-19.5 21.5q-19 15-41.5 22t-45.5 13q-18 6-37 11t-37 10q-3 1-6.5 2t-5.5 2q-8 4-10 11t1 14q2 8 8 11.5t14 1.5q38-11 76-20t75-25q27-12 47-31t28-50q1-5 2-10.5t1-10.5q0-27 1-54.5t-2-54.5q-5-44-39-75t-78-31h-395z" />
<glyph unicode="&#xe93c;" glyph-name="vendor-stuff-icon" horiz-adv-x="1029" d="M1020 144q-4 24-10 47.5t-18 45.5q-7 14-18.5 23.5t-28.5 13.5q-47 12-93.5 24t-92.5 24q-20 5-40.5 10t-40.5 10l-4-16q-11-52-25-103.5t-35-100.5q-6-15-13.5-29t-18.5-26q-6-7-14.5-11t-18.5-4q-17 1-34.5 1t-34.5-1q-9 0-16 3t-12 10q-9 9-15 19.5t-11 21.5q-17 37-28.5 76.5t-22.5 79.5q-6 19-11 39t-13 40l-132-34t-132-33q-19-4-32-15.5t-21-28.5q-4-7-7-15t-5-16q-13-42-17-85t-5-87q0-7 3-11t9-7q41-17 83.5-28t85.5-19q63-11 126-16.5t126-7.5q55-2 110-1 55 0 110 3t110 10q55 6 109 17 38 7 75 17.5t73 25.5q5 3 7.5 6.5t1.5 9.5q-1 29-2.5 58.5t-6.5 59.5v0zM980 36q-43-16-87-25.5t-88-16.5q-53-7-106-12-52-4-105-6t-106-1-106 4q-78 3-155.5 13.5t-153.5 34.5q-8 2-17.5 4.5t-14.5 8.5q-6 6-3.5 16t2.5 19q2 30 6 59.5t13 57.5q2 7 5 14t7 14q3 7 9 11t14 7q57 14 114.5 28.5t114.5 28.5q1 1 2 1h3q3-14 7-28t8-27q10-38 21-75t27-73q7-14 15-27.5t18-25.5q12-12 25.5-18t30.5-6h69q20-1 35 6.5t27 21.5q14 16 23.5 33.5t17.5 36.5q18 42 30.5 86t22.5 89q0 2 0.5 3.5l1.5 4.5q20-5 39.5-10t39.5-10q37-10 74.5-19.5t75.5-18.5q9-3 15-7.5t10-12.5q10-19 14.5-38.5t8.5-39.5q3-22 5-44.5t3-44.5q0-7-2.5-10.5t-9.5-5.5v0zM432 390q35-25 84.5-25.5t88.5 40.5q20 20 37 42.5t29 49.5q26 55 39.5 113t16.5 118q1 13 0.5 26t-2.5 25q-6 58-34.5 99t-83.5 62q-49 19-99 20t-100-14q-34-10-59-32t-41-54q-12-25-17.5-50.5t-6.5-52.5q-2-69 14-134t45-127q15-33 37.5-59.5t51.5-46.5v0zM321 766q1 18 4.5 35t10.5 33q12 31 34.5 51t54.5 28q37 10 73.5 10.5t72.5-9.5q51-14 82-51.5t35-90.5q1-10 1.5-19t0.5-16q-2-60-14.5-115t-36.5-107q-10-23-25-43t-32-38q-29-32-65.5-31.5t-63.5 18.5q-23 16-41 36.5t-31 45.5q-31 62-47 127.5t-13 135.5v0zM551 248q12 8 14.5 27t-5.5 31q-10 14-38.5 16.5t-40.5-10.5q-10-10-9.5-32t11.5-32q3-2 4.5-5t0.5-7q-2-32-4.5-63.5t-5.5-62.5q-1-7-1.5-14.5t0.5-14.5h80v6q-2 37-5 73.5t-5 73.5v7.5t4 6.5v0z" />
<glyph unicode="&#xe93d;" glyph-name="verified-icon" horiz-adv-x="761" d="M761 644v124q-1 19-15.5 32t-33.5 11q-2 0-4.5-0.5t-4.5-0.5q-33-7-64-5.5t-60 10.5q-7 2-14 5l-14 6q-40 18-71 45.5t-57 62.5q-3 4-6.5 8.5t-8.5 8.5l-0.5 0.5t-1.5 0.5q-6 4-12.5 6t-13.5 2q-6 0-12.5-2t-12.5-6q-1 0-1.5-0.5t-1.5-0.5q-4-4-7.5-8t-6.5-9q-26-35-57.5-62.5t-70.5-45.5l-14-6t-14-5q-29-9-60-10.5t-64 5.5q-2 1-4.5 1h-4.5q-19 2-33.5-11t-15.5-32v-380q1-54 13.5-105t38.5-98q38-68 90-116.5t116-82.5q0-1 0.5-1h0.5q26-15 53-26.5t56-20.5v0 0h1q3-1 5.5-1.5t5.5-0.5v0h1q3 0 6 0.5t5 1.5h2q28 9 55 20.5t53 26.5h0.5t1.5 1q63 34 115 83t90 116q26 47 38.5 98t13.5 105v256zM722 375q-3-69-27.5-130.5t-70.5-114.5q-29-34-63.5-61.5t-72.5-48.5q-1 0-2-0.5t-2-1.5q-8-4-16-8.5t-17-8.5q-10-4-20-8.5t-20-8.5q-6-2-11-4t-11-4q-2 0-4-0.5t-4-0.5-4 0.5-5 0.5q-5 2-10.5 4t-10.5 4q-11 4-21 8.5t-20 8.5q-8 4-16 8.5t-16 8.5q-1 1-2 1.5t-2 0.5q-38 21-72.5 48.5t-64.5 61.5q-46 52-70 114t-28 131v387q0 7 2 9.5t8 1.5l0.5-0.5t1.5-0.5q9-3 18.5-4.5t18.5-1.5q12-1 24-0.5t24 1.5q32 3 63.5 14t61.5 29q33 19 59.5 45t49.5 57q1 2 2.5 4t3.5 4q1 1 2.5 1.5t2.5 0.5 2.5-0.5 2.5-1.5q2-2 3.5-4t2.5-4q23-31 49.5-57t59.5-45q30-18 61.5-29t64.5-14q11-1 23-1.5t24 0.5q10 0 19 1.5t19 4.5l0.5 0.5t1.5 0.5q6 1 7.5-1.5t1.5-9.5v-336q0-2 0.5-3.5t0.5-2.5q-1-11-1-22t-1-23v0zM552 605q-4-1-7-3.5t-6-5.5q-40-48-79.5-96.5t-79.5-97.5q-13-16-26.5-31.5t-26.5-31.5l-10 10q-25 26-49 52.5t-48 52.5q-7 6-14.5 7t-13.5-5q-6-5-6.5-13t6.5-15q4-5 8-9.5t8-8.5l52-56t53-56q7-8 15-7.5t15 7.5q2 2 3.5 4t2.5 3q44 53 88 106.5t88 106.5q12 14 23 28t23 28q4 5 4.5 11.5t-3.5 11.5q-3 5-8.5 7t-11.5 1v0z" />
<glyph unicode="&#xe93e;" glyph-name="visit-icon" horiz-adv-x="1016" d="M465-64q-1 19-2.5 37t-3.5 36q-3 41-6 82.5t-7 82.5q0 7 1 14.5t-4 11.5q-5 3-12 3.5t-13 1.5q-64 14-108 62t-52 112q0 2-0.5 4t-1.5 5l-256 16q0 3 1.5 5t2.5 4q39 61 77 122t78 122q29 46 72 66.5t97 15.5q17-1 33-3t33-3q5-1 9.5-0.5t8.5 5.5q31 34 67 62 35 29 73.5 52t80.5 41q41 18 85 32 54 16 108.5 25.5t110.5 9.5q15 0 30-2t30-6q4-2 6.5-4t3.5-7q7-23 8.5-46.5t-0.5-46.5q-5-76-24-148.5t-51-141.5q-27-57-63-107.5t-83-93.5q-4-4-5-7.5t0-8.5q2-23 5-45t3-44q-1-45-19-82t-55-62q-63-44-126.5-86t-127.5-84l-4-2zM498 4q1 1 2 1h1q51 34 101 67t100 67q29 20 43.5 48t12.5 63q-1 26-3.5 53t-5.5 53q-1 6 0.5 9.5t5.5 7.5q26 23 49.5 48.5t43.5 54.5q45 63 74 133t44 145q7 34 10 68t2 69q-1 21-5 25.5t-25 5.5h-9q-34 1-67.5-2.5t-66.5-10.5q-55-12-107-30-51-18-98-43.5t-90-59.5q-43-33-81-76-5-5-10-6.5t-11-0.5q-24 3-48.5 6t-48.5 4q-40 1-70.5-17t-51.5-51q-29-47-59-94t-59-94q-2-2-3.5-4t-0.5-5q57-3 113-7t113-7q-1-40 10.5-74.5t39.5-62.5 62.5-39 74.5-10q5-59 9.5-117t8.5-117v0zM170 341q6-6 12-12.5t13-13.5l-48.5-48.5t-50.5-49.5h82l-47-141q36 11 71 23t70 23v-80l49.5 49.5t48.5 49.5q7-8 13.5-14.5l12.5-12.5-162-162v117q-41-13-81.5-26.5t-81.5-27.5q13 41 26.5 81.5t27.5 81.5h-118l163 163zM835 655q0-54-35.5-90t-89.5-36q-53 0-89.5 36t-35.5 90q0 54 36 89.5t90 35.5 89-36 35-89v0zM710 565q35 0 62.5 26.5t27.5 62.5q1 35-26.5 63t-63.5 28q-35-1-62.5-28t-27.5-62q0-36 27-63t63-27v0z" />
<glyph unicode="&#xe93f;" glyph-name="welcome-icon" horiz-adv-x="1075" d="M666 137q4-22-15.5-36t-41.5-3-43 22.5-41 25.5q-8 6-11.5 13.5t0.5 17.5q3 10 4.5 20.5t4.5 20.5q1 7 0 13t-8 10-10.5-0.5-7.5-8.5q-12-13-23.5-26t-23.5-26q-4-5-8-7.5t-11 0.5q-6 4-6 9t2 10q6 22 12.5 43.5t12.5 42.5q2 7 1 12.5t-8 8.5q-7 4-12.5 2.5t-10.5-8.5q-14-18-26.5-36.5t-24.5-37.5q-2-3-4.5-6.5t-5.5-6.5q-2-3-6-4t-8 1-5.5 5.5-0.5 7.5q2 10 4.5 19t5.5 19q3 12 6.5 24.5t6.5 25.5q2 7 0 11.5t-9 6.5q-7 3-11 1t-8-8q-9-15-18.5-30.5t-18.5-31.5q-3-5-7-9.5t-12-2.5q-8 3-8.5 9t0.5 12l2 28t3 28q1 8-1.5 14t-10.5 9q-9 3-13.5-1t-7.5-9q-7-9-13-18.5t-12-18.5q-6-10-13-11.5t-16 2.5q-12 7-24.5 12.5t-24.5 11.5q-4-1-5-4t-3-5q-4-7-9.5-9t-13.5 1q-25 8-49 18t-48 23q-10 5-12.5 12.5t2.5 17.5l1 2q32 54 47 113.5t38 116.5q7 19 14.5 38.5t16.5 38.5q5 11 13 15t19 2q28-6 53.5-16.5t49.5-25.5q9-5 10.5-12.5t-1.5-16.5q-11-35-25.5-68.5t-28.5-67.5q-10-25-20.5-50t-20.5-50q-3-6-7-10t-11-1q-8 3-7 8.5t3 11.5q22 53 44 105.5t43 105.5q9 21 6.5 26t-22.5 15q-15 7-30 13t-31 10q-8 3-12 0.5t-8-9.5q-15-37-28-75l-26-76q-4-12-8-25t-8-27q15 0 29-1t20-19q3-9-2-20.5t-13-17.5q-11-7-22.5-5t-27.5 14q-8-12-14-25t-13-26q21-13 43.5-22t44.5-17q1 1 2 1t1 1q12 16 17 17.5t24-6.5q10-5 20.5-10.5t22.5-10.5q7 10 14 20.5t15 20.5q12 16 25.5 18t30.5-9q11-7 14.5-16t0.5-21q-1-4-1.5-7t1.5-7q8 4 11 10.5t8 12.5q11 15 25.5 17.5t30.5-8.5q10-6 13-15.5t0-20.5q-1-5-1.5-9.5t-0.5-9.5q5 7 10.5 14t11.5 14q9 11 21.5 13.5t26.5-4.5 19-17.5 1-25.5q-2-10-5-21t-6-21q1-1 2-1.5t2-1.5q4 5 9 11t10 11q7 8 15.5 11t19.5-2 18-13.5 7-22.5q0-12-3.5-24.5t-5.5-24.5q-2-6-0.5-10t6.5-7q17-11 35-21.5t37-19.5q2 0 4-1l4-2q5-1 9.5 1t7.5 6q4 6 1.5 9.5t-6.5 6.5q-10 8-20 15.5t-20 15.5q-4 3-8 7l-8 8q-4 5-5 11t4 12q4 5 9.5 5.5t11.5-1.5 11.5-5.5 11.5-6.5q13-9 26.5-18.5t26.5-18.5q9-7 18-7.5t19 4.5q9 4 10 8.5t-5 11.5q-11 13-24 22.5t-26 19.5q-10 8-19 15t-18 16q-5 5-7.5 11t2.5 13 11.5 6.5 12.5-3.5q18-9 34.5-20t33.5-22q9-6 18-11.5t18-11.5q9-5 17.5-4t16.5 6q12 7 13.5 16t-8.5 19q-14 14-30.5 25.5t-32.5 24.5l-16 12t-15 13q-6 5-9.5 11.5t2.5 14.5 13.5 7 14.5-5q9-5 17.5-10.5t17.5-11.5q13-8 25.5-16.5t25.5-17.5q4-3 9.5-5.5t10.5-4.5q6-2 12.5-2t11.5 6q5 5 4.5 11t-3.5 12q-6 13-15 24l-18 22q-12 14-24.5 27.5t-24.5 27.5q-7 9-16 11.5t-20 1.5q-7-1-14.5-1.5t-14.5-1.5q-34-2-59 13.5t-41 44.5q-9 15-15.5 31t-12.5 33q-7 18-22.5 22.5t-32.5-6.5q-13-9-26-17.5t-27-16.5q-13-7-26.5-12.5t-27.5-8.5q-6-2-11.5-2.5t-11.5 1.5q-24 5-30.5 16t3.5 31q17 33 37.5 63t44.5 58q4 5 9.5 7.5t11.5 3.5q35 6 69.5 9t68.5 5q12 0 22-4l20-8q30-14 60.5-27t60.5-27q22-11 44-13t46 5q11 3 22 5.5t23 4.5q15 2 21-2.5t8-19.5q5-43 8-86t6-87q2-17 3.5-35t3.5-35q0-8 3.5-12t12.5-3q17 3 34 4.5t34 2.5q9 0 12.5 4.5t2.5 13.5l-2 52t-3 52q-3 37-6.5 73.5t-6.5 73.5q-1 10-5.5 13.5t-12.5 2.5q-12-2-24-1.5t-23-6.5q-3-2-6.5-0.5t-6.5 4.5q-2 4-2 7.5t3 7.5q2 2 4.5 3.5t4.5 2.5q18 4 36 5.5t36-2.5q7-1 11-5.5t5-12.5q5-29 7.5-59t5.5-60q3-38 5.5-76t2.5-76q0-23-5-29t-27-9q-21-4-42-6t-42-1q-16 0-20.5 4.5t-6.5 20.5q-7 49-10 99t-8 100q-1 13-2 27t-4 28q-18-4-36-7t-35-8q-16-3-30.5-1t-28.5 8q-38 17-75.5 33t-74.5 33q-9 3-18 4.5t-19 1.5q-27-3-54.5-5.5t-54.5-5.5q-8-2-14.5-5t-12.5-10q-17-23-33.5-46.5t-30.5-48.5q-2-5-5-10t-3-12q7-5 15-5t16 2q24 7 45 19t40 27q16 11 32.5 14t34.5 0q10-2 16-7t10-14q4-12 9-25l10-26q3-7 6.5-13.5t7.5-13.5q15-27 38.5-37.5t53.5-4.5q26 5 45.5-3.5t36.5-28.5q16-19 32-37.5t30-38.5q3-4 5.5-7.5t3.5-7.5q6-12 7-25t-8-25q-10-12-23-14t-27 2q-1 0-2 0.5t-3 0.5l-2-1q12-18 13-31t-10-26q-12-15-30-20t-36 2q-2 1-3.5 1.5t-3.5 1.5q-2 0-3.5 0.5t-3.5-1.5q1-1 2-1.5t2-1.5q6-10 7.5-20t-6.5-20q-11-12-25-15.5t-29-1.5q-4 0-8 2t-8 3q-1 0-2 0.5t-2 0.5v-4zM67 425q2-4 5-6.5t7-3.5q3-2 6-1.5t5 4.5q1 2 2 4.5t1 4.5q-1 4-4.5 4h-6.5q-4 0-8-1.5t-7-4.5v0zM542-64q-74 4-140 23-66 20-122.5 55t-103.5 86-84 119q-1 3-2 5t-2 5q-2 4-0.5 8t5.5 6q5 3 9 1.5t6-5.5q2-3 4-7t4-7q30-56 69-101 39-44 86-77t102-54q55-20 118-28 84-10 163 7t146.5 57.5 120.5 102.5q52 61 83 139 1 1 1 2v1q3 7 6.5 11t11.5 1q7-3 7-8.5t-3-11.5q-10-26-22.5-51t-28.5-48q-38-56-85-98-46-42-100-71t-117-44q-62-15-132-18v0zM571 960q61-2 118-18 57-15 109-44.5t97-72.5q46-43 85-100 1-2 2.5-4.5t2.5-4.5q3-4 2.5-8.5t-5.5-7.5q-5-4-9.5-2t-7.5 7q-8 11-16 23t-16 23q-39 47-83 82-43 35-92.5 58.5t-105.5 34.5q-55 11-115 10-57-2-109-14-51-13-97.5-36t-87.5-57-77-78q-1-2-2.5-4t-3.5-4q-3-5-7.5-7t-10.5 2q-5 5-4.5 10t4.5 9q17 22 35 42t39 37q36 31 76 54 39 23 82.5 38.5t92.5 23.5 104 8v0zM739 192q-1 1-2 1.5t-2 1.5q2 2 3.5 1.5t3.5-0.5q-1-1-1.5-2t-1.5-2v0zM666 137v4q1 0 2-0.5t2-0.5q-1-1-2-1.5t-2-1.5v0z" />
<glyph unicode="&#xe940;" glyph-name="rental-calender" d="M176 869q2 10 1.5 20t1.5 20q6 24 26.5 38.5t46.5 12.5q23-2 41-19.5t20-40.5q1-8 1-15.5t1-14.5h127q1 7 1 15t1 16q3 27 24 43.5t49 15.5q25-1 43.5-20.5t19.5-45.5v-25h128q2 6 1.5 12t-0.5 12q1 27 20 46.5t46 20.5q29 0 49.5-18.5t21.5-46.5v-24q3-2 6-2h103q13 0 18.5-5.5t5.5-18.5v-887q0-13-5-18t-17-5h-890q-12 0-17 5t-5 16v892q0 11 5 16t17 5h109zM80-29h863v862h-97v-41q-1-27-21.5-46.5t-47.5-18.5q-28 1-47.5 20.5t-20.5 46.5v39h-129v-40q-1-26-20-45t-46-21q-26-1-46.5 16.5t-23.5 42.5q-2 12-1 23.5t-1 23.5h-128v-42q-3-28-23.5-46.5t-46.5-17.5q-29 2-48 21.5t-19 48.5v36h-97v-862zM279 843v46q0 16-9 26t-24 11q-14 0-24-10.5t-10-26.5q-1-19-1-38t1-38q0-6-0.5-12t1.5-12q3-13 13-20.5t24-5.5q12 1 20.5 10.5t8.5 22.5v47zM811 844v47q0 14-9.5 24t-23.5 11q-13 0-23.5-10t-10.5-24q-1-24-1-48t1-48q0-15 10-24.5t25-9.5q14 1 23 10.5t9 24.5v47zM546 843v23.5t-1 23.5q0 15-9.5 25t-23.5 11q-15 0-24.5-10.5t-9.5-26.5v-91q0-4 0.5-7t1.5-7q5-11 15-17t23-4q11 1 19 10.5t8 22.5q1 12 1 23.5v23.5zM323 459v-54q0-10-5-15t-15-5h-108q-10 0-15 5.5t-5 15.5v106q0 11 5 16t16 5h106q11 0 16-5t5-16v-53zM287 421v76h-76v-76h76zM512 128h-54q-9 0-14.5 5t-5.5 14v109q0 10 5.5 15t15.5 5h107q10 0 15-5t5-15v-108q0-10-5-15t-16-5h-53zM550 163v77h-76v-77h76zM841 459v-54q0-10-5-15t-14-5h-109q-10 0-14.5 5t-4.5 15q-1 27-1 54t1 55q0 8 4.5 13t12.5 6h112q9-1 13.5-5.5t4.5-14.5v-54zM729 421h77v76h-77v-76zM249 128h-54q-10 0-15 5t-5 15v108q0 10 5 15t15 5h109q9 0 14-5t5-14v-110q0-9-5-14t-14-5h-55zM211 163h76v78h-76v-78zM841 202v-54q0-10-5-15t-14-5h-109q-10 0-14.5 5t-4.5 15q-1 27-1 54t1 54q0 10 4.5 15t14.5 5h108q10 0 15-5t5-15v-54zM806 163v78h-77v-78h77zM434 472q-5 5-11.5 5.5t-11.5-4.5q-5-4-5-10.5t6-11.5l60-60q6-6 12-6.5t12 5.5l116 116q3 3 4.5 7t0.5 8q-3 10-11.5 12t-16.5-6q-25-24-49-48.5t-49-48.5l-9-9q-3 3-5 6t-5 6q-9 10-18.5 20t-19.5 19v0z" />
<glyph unicode="&#xe941;" glyph-name="resources" d="M892 728q1-9-3-14.5t-11-9.5q-43-25-85-49-43-24-85.5-48.5t-84.5-48.5q-43-24-85-49-1 0-2.5-1t-2.5-1q-9-6-18-7t-20 6l-352 200q-4 2-7.5 5t-5.5 8q-5 11-2 19.5t13 13.5q44 26 88 51 45 26 89 51t88 51q45 25 89 51 8 4 15 4t15-5q44-25 89-51 44-25 88.5-50.5t89.5-51.5q44-25 89-51 7-4 9.5-9.5t1.5-13.5v0zM194 732l3-1.5t2-1.5q38-22 77-45 38-22 76.5-44.5t76.5-44.5q38-23 77-45 4-3 7-2t7 3q44 25 88 51l88 52q33 19 66.5 38.5t67.5 39.5q-2 1-3.5 2t-2.5 1l-76 44q-39 22-77 43.5t-77 43.5l-76 44q-4 2-7 1.5t-7-2.5q-50-28-99.5-56.5t-99.5-57.5q-28-15-55.5-31t-55.5-32v0zM565 168v204q0 10 4 17t12 11l88 50q43 25 86.5 50t87.5 50 87 50q3 2 5.5 3t4.5 2q10 4 18-1t9-15q1-3 1-5v-106q-1-51-0.5-101.5t0.5-101.5v-102q0-9-4-15t-12-11q-44-25-88-51-44-25-88.5-50t-88.5-51l-88-50q-2-1-3.5-1.5t-1.5-2.5q-4-4-8.5-5t-8.5 1-7.5 6-4.5 11v214zM605-2q2 1 3 2t2 1q38 22 77 45 38 22 76 44.5t77 44.5l76 44q4 3 5.5 6t1.5 7v349t-2 4q-2-2-4.5-3t-5.5-3l-74-42t-74.5-42-74.5-43l-74-42q-6-3-7.5-6.5t-1.5-9.5v-356zM459 169v-206q0-8-2.5-13.5t-7.5-10.5q-4-3-8-3.5t-7 1.5q-25 18-51.5 32.5t-52.5 29.5q-64 37-128 73.5t-128 73.5q-10 5-14 12t-4 18v407q0 15 10 21t24-2q16-9 33-18.5t34-19.5q36-21 72-41 36-21 72-41.5t72-41.5q36-20 72-41 7-4 10.5-9.5t3.5-14.5v-206zM101 546v-359q0-5 1.5-7.5t5.5-4.5l76-44q37-22 75-44l152-88 3-3t5 0v357q0 6-2.5 8t-5.5 5q-65 37-129 74.5t-129 74.5q-12 8-25 15.5t-27 15.5v0z" />
<glyph unicode="&#xe942;" glyph-name="wp-backend-icon" horiz-adv-x="1030" d="M1011 329q-8 0-13.5-6t-5.5-14v-335h-954v948h305q8 0 14 5.5t6 13.5-6 13.5-14 5.5h-324q-8 0-13.5-5.5t-5.5-13.5v-986q0-8 5.5-13.5t13.5-5.5h992q8 0 13.5 5.5t5.5 13.5v354q0 8-5.5 14t-13.5 6v0zM1011 960h-369q-8 0-13.5-5.5t-5.5-13.5 5.5-13.5 13.5-5.5h321l-720-717q-5-6-5-13.5t5-13.5q3-3 6.5-4.5t7.5-1.5 7.5 1.5 5.5 4.5l722 719v-324q0-8 5.5-13.5t13.5-5.5 13.5 5.5 5.5 13.5v368q0 8-5.5 13.5t-13.5 5.5v0z" />
<glyph unicode="&#xe943;" glyph-name="approve-icon" d="M1024 448q0-106-41-200-40-93-110-162.5t-163-109.5-199-40-199 41q-93 40-162.5 110t-109.5 163-40 199 41 199q40 93 109.5 162.5t162.5 109.5q94 40 199 40 106 0 199-41 94-40 163.5-109.5t109.5-162.5 40-199v0zM513 919q-99 0-185-38-86-37-150-101.5t-101-150.5q-36-86-36-185 0-97 38-182 37-85 101.5-148.5t151.5-100.5q86-36 184-36 96 0 181 38 85 37 149 101t100 150q37 85 37 182t-38 183q-37 86-101 150.5t-149 100.5q-86 37-182 37v0zM494 338q14 17 27 32.5t27 31.5q38 45 75.5 89.5t75.5 89.5q6 8 12.5 10t13.5-1q10-5 12-14.5t-6-18.5q-17-22-35-43l-36-42q-35-42-70-83.5t-71-82.5q-2-3-4-5.5t-4-4.5q-7-7-14.5-7.5t-14.5 5.5q-33 31-65.5 61.5t-65.5 61.5q-7 6-7 14t6 15q6 6 14 6t15-6q27-25 53.5-50t53.5-50q2-2 4-3.5t4-4.5v0z" />
<glyph unicode="&#xe944;" glyph-name="delete-icon" d="M614 61q0-9 6-15t14-6 14 5.5 7 12.5v0 0 0 3q5 81 10 163 5 81 10 162.5t11 163.5q5 81 10 163v0 0 1q0 9-6 15t-15 6q-8 0-14-6t-6-15v-2l-10-162q-5-82-10.5-163t-10.5-162q-5-80-10-161v-3zM369 58v0 0q2-7 7.5-12t13.5-5 14 5.5 6 14.5v0 0 0 0 0 0 3q-5 81-11 162-5 80-10 161l-10 162t-11 162v0 0q0 8-6 14t-14 6q-9 0-15-6t-6-14v0q6-82 11-163 5-82 10.5-163.5t10.5-163.5q5-81 10-163v0zM900 837v0h-204v37q-1 39-24.5 62.5t-62.5 23.5h-194q-42 0-66-27t-22-60q1-9 1-18v-18h-205q-8 0-14-6t-6-15q0-8 6-14t14-6v0 0h42q1-26 2.5-50t2.5-48l6-108t5-107q3-54 6-107.5t5-106.5q4-63 7.5-125.5t6.5-125.5q2-36 25-59t59-23h446q33 0 56 20t27 52q3 35 4.5 70.5t3.5 70.5q2 44 4 88.5t5 88.5q2 55 5 109.5t6 109.5 5.5 109.5 5.5 108.5q1 8 1.5 16.5t0.5 16.5h40q8 0 14 6t6 15q0 8-6 14t-14 6v0zM370 889q3 13 13.5 21.5t24.5 8.5h208q15 0 26-11t13-27v-44h-287q0 13-0.5 26t2.5 26v0zM815 722q-2-46-4.5-91.5t-4.5-91.5q-3-55-6-110.5t-6-110.5l-4-88t-5-88q-1-32-2.5-63.5t-3.5-63.5q-1-16-12.5-26.5t-27.5-11.5h-339q-57 0-113 1-16 0-27.5 10.5t-12.5 27.5q-2 24-3 49l-2 50q-3 56-6 111.5t-6 110.5q-3 54-5.5 107.5t-5.5 106.5l-12 216v28h612q-1-18-2-36.5t-2-36.5v0zM511 41q9 0 14.5 5.5t5.5 14.5v653q0 8-5.5 14t-14.5 6q-8 0-14-6t-6-14v-654q1-8 6.5-13.5t13.5-5.5v0z" />
<glyph unicode="&#xe945;" glyph-name="expire-icon" d="M486 576v-64q0-2 0.5-3.5t2.5-3.5q7-5 10-12t3-16q-1-3 0-5.5t3-4.5l47.5-47.5t47.5-46.5q2-3 4-5.5t3-5.5q1-6-1.5-10.5t-7.5-7.5q-4-3-9-2t-10 5l-45 45q-13 14-26.5 27t-26.5 26q-1 2-2.5 2.5t-3.5 0.5q-11-2-20.5 3t-14.5 15q-4 10-1.5 20.5t10.5 17.5q3 2 3.5 4t0.5 5v126q0 5 2 9.5t7 7.5q8 4 16-0.5t8-14.5v-65zM136 463h-16q-7 1-11.5 5.5t-4.5 10.5q0 7 4.5 12t11.5 5h32q7 0 12-5t4-12q0-6-4.5-10.5t-11.5-5.5h-16zM786 463h-8t-8 1q-8 0-12 4.5t-4 11.5 4 11.5 12 4.5h32q7 0 11.5-4.5t4.5-11.5-4.5-11.5-11.5-4.5q-4-1-8-1h-8zM599 760q-9 0-14 6.5t-2 14.5q2 8 5.5 16t6.5 16q3 6 9 8t12 0q5-2 8-7.5t1-11.5q-3-9-6.5-17t-6.5-17q-2-4-5.5-6t-7.5-2zM486 809v-16q0-7-4.5-11.5t-10.5-4.5q-7-1-12 3t-6 11v36q1 6 6 10.5t11 4.5q7-1 11.5-5.5t4.5-11.5v-16zM751 577q-6 0-10.5 3.5t-5.5 8.5q-2 5-0.5 10t6.5 8q8 4 16.5 8t17.5 7q6 2 11.5-1t8.5-9q2-5 0-11t-8-9q-8-3-16-6.5t-16-7.5q-1 0-2-0.5t-2-0.5zM704 691q-4 0-8 2.5t-6 7.5q-2 4-1.5 8.5t3.5 7.5q6 7 12.5 13.5l12.5 12.5q5 4 11 4t10-4q5-5 5.5-11t-3.5-11q-6-7-12.5-13.5l-13.5-13.5q-2-1-4.5-2t-5.5-1v0zM486 172v-16q0-7-4.5-11.5t-11.5-4.5q-6-1-11 3.5t-6 11.5v34q1 7 6 11.5t12 3.5q6 0 10.5-5t4.5-12v-15zM697 250q0 10 3 18t12 13q8 4 17 4t17-5q8-6 11-14t2-18q-3-26-6-52.5t-6-52.5q-1-5-1.5-10t-1.5-10q-1-7-5.5-11.5t-10.5-4.5q-7 0-11 4.5t-5 11.5q-4 32-7.5 64t-7.5 63v0zM728 91q14 0 23.5-9.5t9.5-22.5-9.5-23-23.5-10q-13 0-22.5 10t-9.5 23 9.5 22.5 22.5 9.5v0zM1016 23q-35 53-70 107t-70 107q-1 3-1 5t1 4q30 51 45.5 106t17.5 114q1 43-5 84t-20 81q-14 41-34 77t-46 68-58 59q-31 27-69 49-43 26-90 41.5t-98 21.5q-23 2-46 2t-46-2-45-6-43-11q-77-22-139-66t-110-108q-40-55-62.5-117.5t-26.5-130.5q-2-32 0.5-63.5t9.5-63.5q12-59 39-112t67-99q42-48 94-82t113-54q28-10 57.5-15.5t59.5-7.5q-2-7-3-14t1-14q4-17 17.5-27.5t31.5-10.5h487q9 0 17.5 3t15.5 9q13 11 16.5 29.5t-8.5 36.5v0zM455 43q-42 2-83.5 11t-80.5 27q-48 23-88 53t-71 67.5-53 82.5-35 98q-8 31-10.5 62.5t-0.5 63.5q5 71 30.5 134t70.5 117q41 49 91.5 83.5t111.5 53.5q22 7 44.5 11.5t45.5 7.5q23 2 46 2t45-3q60-7 113.5-28.5t101.5-57.5q57-43 95.5-99t59.5-124q11-34 15.5-68.5t2.5-70.5q-1-50-14-98t-36-92l-1.5-1.5t-0.5-1.5l-40 60-27 43q-4 6-7.5 11.5t-7.5 10.5q-8 13-22 18.5t-29 2.5q-11-2-18.5-8.5t-13.5-15.5l-72-110t-72-111q-4-6-8-12.5t-8-12.5q0-1-0.5-1h-0.5l-30-46-20-32q-4-6-8-11.5t-7-11.5q-2-3-3.5-3.5t-4.5-0.5v0zM991-14q-3-5-7.5-6.5t-9.5-1.5h-485q-4 0-8 1t-7 4q-4 5-4 10t4 11q13 22 27 43l28 42q23 36 47 72 23 37 46.5 73t47.5 72l46 72q5 7 10.5 9t11.5 0l8-8q25-39 51-79 25-39 50.5-78t51.5-79q25-39 51-78 9-15 19-30l20-30q3-5 3.5-9.5t-1.5-9.5v0z" />
<glyph unicode="&#xe946;" glyph-name="reject-icon" d="M510 960q-105 0-198-40-93-41-162.5-110.5t-109.5-162.5-40-199 40-199 109.5-162.5 161.5-110.5q93-40 198-40 107 0 200 40 94 40 164 109t110 162q41 92 41 198 0 107-40 201t-109.5 163.5-163.5 110.5q-94 40-201 40v0zM48 449q0 44 8 87 9 42 24.5 81.5t37.5 75.5q22 35 50 66l66-66t84-84.5 81-81.5l128-128q21-21 61-62 41-40 85.5-84.5l85.5-85.5t63-64q-31-28-67-50-35-22-74.5-37.5t-81.5-23.5-87-8q-96 0-181 37-84 36-147 99t-100 148q-36 84-36 181v0zM856 137q-20 20-57 58-38 37-78.5 77.5t-76.5 77.5q-37 36-54 54-11 11-22.5 21.5t-23.5 22.5l-36 41-62 62q-41 41-86.5 86t-88.5 88q-43 42-69 68 31 28 66 50 36 22 75 37.5t82 23.5q42 8 87 8 96 0 180-37 85-36 148-99t100-148q36-84 36-180 0-45-8-88-9-42-24.5-81.5t-37.5-74.5q-22-36-50-67v0z" />
<glyph unicode="&#xe947;" glyph-name="rental-icon" d="M454 745q0-67-33-107.5t-71-57.5q-11-5-15.5-12.5t-4.5-19.5v-500q0-6-1.5-10.5t-6.5-8.5q-12-11-23.5-22t-24.5-22q-11 10-21.5 20t-21.5 19q-7 6-10 13.5t-3 17.5v494q0 11-4 18.5t-14 12.5q-58 26-85.5 80.5t-15.5 116.5q11 56 56 96.5t101 44.5q54 4 96.5-17t73.5-65q2-3 3.5-5.5t6.5-1.5h39q0 5-2 8.5t-4 7.5q-35 63-100 93.5t-136 17.5q-67-12-116-62t-60-120q-11-66 18-127.5t91-96.5q6-3 8.5-7.5t2.5-10.5v-495q0-10 3-17t10-14q16-15 32.5-30t32.5-30q10-10 19-10t19 10l32 30t33 29q7 7 10.5 14.5t3.5 17.5v496q0 6 1.5 9.5t7.5 6.5q32 18 55.5 43.5t38.5 58.5q10 22 15 45.5t4 48.5h-40zM969 750q0 37-14 67t-42 53q-17 14-33.5 27.5t-33.5 27.5q-39 33-89 35t-91-29q-21-17-42-35l-42-36q-8-6-14-13.5t-12-17.5h42q5-1 9.5 0.5t7.5 5.5l34 28t34 29q30 25 66.5 26.5t65.5-21.5q21-16 40.5-32.5t38.5-33.5q18-15 26.5-34.5t8.5-42.5v-440q0-27-17-43.5t-44-16.5h-228q-30 0-47 16.5t-17 46.5v415q0 4 0.5 7.5t-1.5 6.5h-39q0-2-0.5-3.5t-0.5-2.5v-430q0-41 29.5-69t70.5-28h231q45 0 74 29t29 73v435zM513 808h-236q-13 0-19.5-9t-2.5-20q4-7 10-9.5t14-2.5h468q7 0 13 2t10 8q3 5 3 10t-3 10q-3 6-8.5 8.5t-12.5 2.5h-236zM278 827h65q-8 21-32 33t-51 7q-26-4-45.5-25t-21.5-46q-3-30 12.5-54t43.5-33q27-9 53 0.5t42 34.5q-1 1-1.5 1h-65.5q-19 1-31.5 13t-12.5 30q1 17 13.5 28t31.5 11v0zM765 749q-5-2-11-2h-59q13-20 35-27.5t44-0.5 35.5 25.5 14.5 41.5q0 24-13 43t-36 26q-22 8-44 1t-37-27h57q16-1 27.5-10.5t13.5-23.5q3-15-4.5-28t-22.5-18v0z" />
<glyph unicode="&#xe948;" glyph-name="reply-icon" d="M597 261v-182q0-9-3-15t-12-10q-8-3-14.5 0t-11.5 8l-126 126q-3-1-2.5-3.5t0.5-4.5q0-25-0.5-50.5t0.5-50.5q0-11-5-17.5t-12-10.5q-6-3-11.5 0.5t-10.5 8.5q-32 31-63.5 63t-63.5 64l-62 62q-32 31-63 62.5t-62 62.5q-32 31-63 63-12 12-12 21.5t13 22.5l186.5 186.5t93.5 92.5q46 47 93 94 1 1 3 2.5t3 3.5l8 8t11 1q8-3 12.5-9t4.5-15v-107l2-1q2 2 3.5 4t3.5 4l116 116q5 6 12 8.5t14-0.5q8-4 13-10t5-16q-1-36-0.5-72t0.5-71q3-3 6-2.5t6 0.5h136q50 0 95-18 45-17 81.5-47t62.5-72q25-41 34-89 3-16 4.5-31t1.5-31v-355q0-11-7-19.5t-16-9.5q-9 0-16.5 8t-8.5 19q-8 69-52.5 122.5t-111.5 75.5q-18 5-36.5 7.5t-37.5 2.5h-141zM554 795q-42-43-85-85l-84-84t-84-83q-42-42-83-84 42-42 84-83l168-168t84-83v150q0 13 7.5 20.5t19.5 8.5h20q42-1 84 0.5t83-2.5q66-7 117.5-38.5t89.5-84.5q1-2 2-4.5t4-2.5q0 2 0.5 3.5t0.5 2.5v237q-1 11-1.5 22.5t-2.5 22.5q-9 44-32 80-22 36-53.5 62t-71.5 40-86 14h-155q-13 0-19.5 7t-6.5 19v113zM50 459l335-335q1 1 0.5 3t-0.5 4v87q0 5-1.5 9.5t-5.5 8.5q-51 50-101.5 101t-101.5 101q-10 10-10 23t10 23q51 50 101.5 101t101.5 101q3 4 5 7t2 8v84q0 2 0.5 4.5t-1.5 4.5l-251-251q-42-42-83-84v0z" />
<glyph unicode="&#xe949;" glyph-name="rupee-icon" d="M512-64q-105 0-198 41-93 40-163 110t-110 163q-41 93-41 198t41 198q40 93 110 163t163 110q93 41 198 41t198-41q93-40 163-110t111-164q40-93 40-198t-41-198-110.5-162.5-162.5-109.5q-93-41-198-41v0zM513 917q-97 0-183-35-85-36-149-98.5t-101-148.5q-37-85-37-185-1-98 35-183 36-86 98.5-150t148.5-101 186-37q97-1 183 35 85 36 149 98.5t101 148.5 37 186q1 97-35 182-36 86-98.5 149.5t-148.5 101.5q-86 37-186 37v0zM533 618q38-29 61-64t21-84h61q3 0 6-0.5t7-1.5q7-2 11-7.5t4-12.5q0-8-4-13t-11-7q-3-1-6-1.5t-6-0.5h-70q-15-46-43.5-83t-63.5-70q27-6 51-17.5t44-28.5q12-9 22-19.5t18-22.5q6-9 5-17.5t-9-14.5q-8-5-16.5-3t-14.5 10q-28 38-64.5 56.5t-83.5 18.5q-9-1-15 2.5t-9 11.5q-3 7-1 13t10 13q27 23 53 47.5t47 53.5q8 12 15.5 24t12.5 26h-114q-11 0-18 6.5t-7 15.5q1 10 7.5 16t17.5 6h112q3 0 6-0.5t6 1.5q0 24-9 44t-24 38q-19 22-42.5 37t-50.5 27q-3 1-6.5 1h-98.5q-7 0-12.5 3t-9.5 9q-3 6-2.5 11.5t4.5 10.5q4 6 10 8t13 2h354q13 0 20.5-9.5t2.5-21.5q-4-7-10.5-10t-14.5-3h-166z" />
<glyph unicode="&#xe94a;" glyph-name="subscriptions" d="M148 237h43q4 1 5.5-1.5t2.5-5.5q43-68 102-114.5t135-70.5q87-27 174-16 87 12 160.5 54t126.5 111q54 70 74 158 17 76 8 150-10 73-42.5 137.5t-85.5 114.5q-54 51-124 80-59 25-117 33-57 8-112-0.5t-108-32.5q-53-25-103-66-60-49-95.5-114t-48.5-142v-3q0-2-0.5-4.5t-0.5-5.5q16 16 31.5 32t31.5 32q8-9 15.5-16.5t15.5-14.5l-60-58t-59-57q-28 27-57.5 55.5t-59.5 57.5q8 8 16 15.5t16 15.5q16-15 32.5-32t33.5-34q7 53 22 100 16 48 41 90t59 78q34 37 78 67 65 46 138 65.5t153 15.5q92-6 171-44 79-39 137.5-101t92.5-143q34-80 35-171 0-88-30-167t-84-141-127-103q-73-40-159-52-88-12-164 6-77 18-138.5 54.5t-105.5 86.5q-45 50-69 101v0zM781 340q-6-9-11-18t-11-18l-48 28q-41 24-82 48.5t-82 47.5q-5 3-6.5 6.5t-1.5 8.5v298h42q1-2 1-5v-135t-1-130q0-7 2.5-11.5t8.5-7.5l88-52t88-53q3-1 6-3t7-4v0z" />
<glyph unicode="&#xe94b;" glyph-name="add-booking" d="M513 960q-106 0-199-40t-163-109.5-110-162.5q-41-94-41-199 0-106 40-199t109.5-163 162.5-110q94-41 200-41 105 0 199 40 93 40 162.5 109.5t110.5 162.5q40 94 40 199 0 106-40 200-40 93-109.5 162.5t-162.5 109.5q-93 41-199 41v0zM512-25q-98 0-184 38-86 37-150 101.5t-102 150.5q-37 86-37 183 0 98 38 184 37 86 101 150t150 101q86 38 184 38 97 0 183-37 87-37 151-101t102-150q37-86 37-183 0-98-37-185t-101.5-151.5-150.5-101.5-184-37v0zM765 468h-233v231q0 12-5 18t-14 6q-10 1-15-5.5t-5-19.5v-221.5t-1-8.5h-228q-3 0-6-0.5t-6-0.5q-7-2-11-7t-4-12 4-12.5 11-6.5q3 0 6-0.5t6-0.5h213q3 0 7.5 0.5t7.5-1.5q1-2 1-3.5v-230.5q0-12 9-18t19-1q7 4 9 9.5t2 12.5v232h233q12 0 18 6t5 16q-1 9-7 13.5t-16 4.5v0z" />
<glyph unicode="&#xe94c;" glyph-name="search-icon" horiz-adv-x="1023" d="M785 206q75-76 111.5-112.5t112.5-111.5q11-12 13-21.5t-5-17.5q-9-9-18-7t-22 15l-220 220t-5 3q-73-65-159-93-85-29-170.5-23t-164.5 44q-80 38-141 104-59 65-88 144t-29 161 30 160q30 79 89 141 64 68 142 104 78 37 160.5 43t163.5-20q82-26 153-84 67-56 110-134 42-78 51.5-166t-17.5-179q-27-90-97-170v0zM858 508q0 85-31 159t-85 129-127 87q-73 31-157 33-87 1-161-29-75-31-130-84t-88-126q-33-72-35-154-3-88 27-165 30-76 85-133t130-90 162-34q86 0 160 31 74 30 129.5 85t87.5 129q33 75 33 162v0z" />
<glyph unicode="&#xe94d;" glyph-name="back-arrow" horiz-adv-x="1533" d="M150 489h1083q24 0 37-9.5t14-28.5q2-20-11-32t-36-12q-80-1-159.5-0.5t-158.5 0.5h-770q1-9 6.5-13.5t9.5-8.5l284-284t81-82q5-4 9.5-8.5t8.5-10.5q8-13 7-25.5t-12-23.5q-11-12-24-14.5t-27 5.5q-4 3-7.5 6t-6.5 6q-45 44-106 105-60 61-124 125t-125 124q-61 61-105 106-18 18-18 34.5t19 34.5q44 45 105 106l249 249t106 105q16 16 33 17t30-13q14-14 12.5-31t-17.5-33l-80-80q-49-48-100-99.5t-100-99.5l-80-80q-7-8-15-14.5t-16-12.5l4-8zM1461 489q9 0 18 0.5t18-0.5q16-2 26-14t10-29q-1-17-10.5-27t-26.5-12q-17-1-34.5-1t-34.5 1q-18 1-29 13t-10 30q0 16 11 27t28 12q8 1 16.5 0.5t17.5-0.5v0 0 0z" />
<glyph unicode="&#xe94e;" glyph-name="duplicate-icon" horiz-adv-x="878" d="M256 137h-196q-26 0-43 17t-17 43v704q0 25 17 42t42 17h395q6 0 10.5-1.5t7.5-5.5l69.5-69.5t68.5-69.5q2-1 3-2t2-3q4-4 6-9t-1-11q-2-7-7-9.5t-12-2.5h-107q-22 0-38.5 17t-16.5 38v91h-378q-16 0-20-4.5t-4-19.5v-701q0-15 4-19.5t20-4.5h499q16 0 20.5 4.5t4.5 20.5v515q0 16 5.5 21t20.5 5h50t50 1q5 0 9-2t8-5q35-36 70-71l70-70q5-5 8-10t1-12q-2-6-6.5-9.5t-11.5-3.5q-28 0-56-0.5t-56 0.5q-21 0-36.5 17.5t-15.5 38.5v89h-72q-2-3-1.5-6.5t0.5-6.5v-491q0-28-17-45t-45-17h-266q-2-2-1.5-4.5t0.5-4.5v-134q0-13 4-17t17-4h505q13 0 17.5 4.5t4.5 17.5v510q1 7 5.5 11.5t12.5 4.5q7 0 12.5-4.5t5.5-12.5q1-2 1-4v-503q0-27-17-44t-44-17h-500q-27 0-44 17t-17 44v140zM554 814q-20 19-39.5 39t-39.5 39v-60q1-10 5-14t14-4h60zM731 675v-33t1-33q0-6 3-10t9-4q17-1 34-0.5t34 0.5l-40 40t-41 40v0z" />
<glyph unicode="&#xe94f;" glyph-name="cancel-status-icon" horiz-adv-x="1030" d="M658 426q35-34 78-78 44-43 89.5-88t89.5-89l78-78q11-10 20-22t13-26q7-27-0.5-52t-28.5-40q-23-16-47.5-17t-48.5 13q-9 4-16.5 11t-14.5 14q-36 37-82 83t-93 93.5-92 93.5q-45 45-81 82-12-2-17-7.5t-10-10.5l-79-79t-90-89.5-90-89.5-79-80q-16-15-34.5-24.5t-41.5-9.5q-50 2-72 44.5t5 85.5q6 9 13 17t15 15q36 37 80 83 45 46 91.5 93.5t91.5 92.5q45 46 80 82-34 34-77 78t-88 90-89 90q-43 44-78 80l-18 18t-17 19q-19 26-17.5 57t21.5 53q21 22 51.5 25t57.5-13q12-7 21-16l18-18q35-36 79-80 45-45 91-91.5t90-90.5q44-45 78-80 12 2 17 8t10 11l79 79q44 43 90 89l169 169q17 17 36 26t42 8q48-3 69.5-44.5t-3.5-83.5q-6-9-14-17.5t-16-16.5q-35-37-80-83t-92-93.5-92-94.5q-46-46-83-84 1-3 7-7t11-10v0z" />
<glyph unicode="&#xe950;" glyph-name="completed-status-icon" horiz-adv-x="1365" d="M1337 810q-30-30-60-60.5t-60-61.5q-87-89-175-178-87-89-174.5-178t-175.5-178q-87-89-175-178-39-40-72.5-40t-72.5 40q-43 44-86 87-43 44-86 87.5t-86 87.5l-86 88q-27 28-28 62.5t26 60.5q26 26 60.5 25t62.5-29q32-32 64-65 32-32 63.5-64.5t63.5-64.5q31-32 63-65 23-23 41.5-23t41.5 24q91 92 182 185 91 92 181.5 184.5t181.5 185.5q90 92 181 185 20 20 42.5 29t50.5 0q28-8 44.5-31.5t15.5-56.5q0-14-7.5-29.5t-20.5-28.5z" />
<glyph unicode="&#xe951;" glyph-name="customer-details-icon" horiz-adv-x="1063" d="M118 54q-14 1-27.5 0t-26.5 2q-28 6-45.5 26.5t-18.5 50.5h275q1 31-21 54.5t-53 23.5q-21 1-41 1h-41v118h-38q-28 0-50.5 17t-29.5 43q-1 4-1 8.5v9.5h274q4 23-16 50.5t-58 28.5q-20 1-40 0.5t-41-0.5v119q-11 0-21-0.5t-20 0.5q-33 0-55.5 23t-21.5 55h274q2 30-20.5 54t-54.5 25h-82q2 29 0 58t6 57q11 37 43 59.5t72 22.5h662q15 0 26-6.5t15-18.5q8-20-4-37t-34-17h-635q-5 0-10-0.5t-9-2.5q-6-2-9.5-6t-3.5-10q-1-7 3-11t10-6q5-3 11-3h678q56 0 90-34.5t34-90.5v-657q0-55-34.5-89.5t-89.5-34.5h-691q-57 0-91 30.5t-39 87.5v0zM827 212q2 50-20.5 80t-70.5 40q-13 3-24.5 8.5t-20.5 15.5q-11 12-11.5 24t10.5 24q9 11 17.5 22.5t14.5 24.5q2 4 5 7.5t7 6.5q14 8 14.5 26t-8.5 24q-11 7-12.5 16t-3.5 18q-1 6-1.5 11.5t-1.5 10.5q-5 23-16 41t-34 26q-14 5-28 6.5t-28-0.5q-29-3-47-18t-26-44q-3-12-5-24t-2-24q-1-5-2.5-8t-5.5-5q-15-10-15.5-27.5t14.5-28.5q4-2 7-5t5-7q6-14 14.5-26t17.5-23q11-12 10.5-24.5t-12.5-24.5q-11-11-25.5-17t-29.5-8q-45-5-64.5-47t-12.5-71h391z" />
<glyph unicode="&#xe952;" glyph-name="download2-icon" horiz-adv-x="1181" d="M199 638q13 3 25 5t25 2q12 0 19-5t8-14q0-9-7-14.5t-19-6.5q-75-1-134-52t-73-124q-8-42 1-83t31-75 56-59q35-25 78-35 16-3 31.5-4t31.5 0q8 0 13.5-3.5t8.5-10.5q3-9-2.5-17t-15.5-9q-67-3-122.5 21t-98.5 77q-38 48-50 105-11 57 2 112t49 101q37 46 93 72 5 2 7 5t2 8q3 48 27 86 24 37 60.5 58.5t81.5 23.5q44 3 87-19 2-1 4.5-2t5.5-2q6 12 13 24.5t15 23.5q30 39 65 67 34 28 73.5 44.5t82.5 20.5q44 4 92-5 49-9 89-29 40-19 71-48.5t53-68.5q23-39 36-87 6-21 8-42.5t1-43.5q0-5 2-8t6-6q61-29 98-77t48-114-8.5-122.5-66.5-102.5q-40-39-88.5-56.5t-104.5-15.5q-10 0-16.5 5.5t-6.5 14.5q1 9 7 14.5t17 4.5q41-1 78.5 9.5t69.5 36.5q53 43 73 99t4 123q-15 64-57 104t-107 56q-11 3-21 4t-21 2q-11 0-17 5.5t-6 14.5 6.5 14 17.5 5q13 0 26-2t26-5q3 3 2.5 6.5t-0.5 7.5q-1 51-20 96-18 46-50 81t-75 59q-43 23-93 30-45 6-88-2-43-9-81-29.5t-68-52.5q-31-32-49-72-2-5-2-8t4-6q8-8 14.5-16.5t11.5-18.5q6-10 5-18.5t-9-12.5q-8-5-15.5-2.5t-13.5 13.5q-12 21-29.5 36t-40.5 24q-61 26-120.5-9.5t-65.5-100.5v-5zM571 6v417q0 11 4 17t12 8q10 1 16.5-5t6.5-17v-420q4 0 5.5 2t3.5 4l94 94q9 9 20 7t14-14q2-6 0.5-10.5t-5.5-8.5q-34-35-68.5-69t-68.5-68q-7-7-14.5-7t-14.5 7q-34 34-68 67.5t-68 67.5q-7 7-7 15t6 15q7 6 14.5 5.5t14.5-7.5q23-23 46.5-46t46.5-46q2-2 4-4.5t6-3.5v0z" />
<glyph unicode="&#xe953;" glyph-name="email-invoice-icon" horiz-adv-x="944" d="M944 496q0 29-9 52.5t-33 41.5q-16 12-31 26t-31 27q-3-34 0.5-43.5t27.5-30.5l6-6t7-5q12-10 17.5-23t5.5-30v-469q0-28-16.5-45t-45.5-17h-740q-30 0-47 17t-17 47v469q0 14 4.5 25.5t14.5 20.5 20.5 18 20.5 18l4.5 4.5t2.5 5.5v46q-17-15-32-28.5t-31-26.5q-23-18-32.5-41t-9.5-51v-461q0-45 28-73t72-28h743q45 0 73 28t28 73v459zM515 672q-8 1-16-1t-17 1q-30 9-51-3.5t-28-43.5q-4-17-4-35t4-36q7-34 31.5-46.5t57.5 1.5q6 2 12 5.5t11 6.5q33-28 67-16.5t43 53.5q6 25 4.5 51t-8.5 52q-8 32-28.5 52.5t-51.5 30.5q-29 9-58.5 9.5t-59.5-6.5q-34-8-58.5-28.5t-37.5-53.5q-12-32-13-65.5t6-67.5q10-49 41.5-74t82.5-29q19-2 37.5-1t36.5 1q4 0 6 1.5t2 5.5q0 8 0.5 17t-2.5 17q-4 2-8 1.5t-8-0.5q-16-2-32.5-2t-32.5 2q-32 5-51 22t-26 47q-5 19-6 38.5t1 38.5q5 31 20.5 54.5t46.5 34.5q25 8 50 8t50-9q17-5 29-17.5t17-29.5q8-25 8-50t-5-51q-1-9-6.5-13t-12.5-3q-8 1-10 7t-3 12q0 14-0.5 28.5t-1.5 28.5v55q-7 0-14-0.5t-14 0.5v0zM499 553q-7-5-14-7t-16-2q-6 0-10 3.5t-6 9.5q-5 16-5 31.5t4 31.5q2 6 6.5 10t12.5 4q7 1 13.5 0.5t13.5-3.5q1-19 0-37.5t2-36.5v-2.5t-1-1.5v0zM156 473q1-1 2-1.5l3-1.5v269q0 17 8 28.5t22 19.5q9 5 18.5 6.5t19.5 1.5h498q28 0 42-14.5t14-41.5v-249.5t3-6.5q7 6 13.5 12t13.5 11q5 4 6.5 8t1.5 10v211q0 47-25 72t-72 25h-199q-76 0-152.5 0.5t-152.5-0.5q-39 0-69-27t-28-71q1-47 1-93.5t-2-93.5q-1-25 6-43t28-31v0zM106 23q2 2 4 3.5t4 3.5q33 29 66 57.5t66 56.5q24 21 48 41.5t48 41.5l62 54t63 54q25-21 49-42l48-42q44-39 89-78t89-78q20-18 39.5-35t39.5-34q5-5 10.5-6.5t11.5 1.5q5 2 7.5 6t3.5 9q1 7-2.5 11.5t-8.5 8.5q-51 44-101.5 88.5t-101.5 88.5q-39 35-78 69l-78 68q-8 7-16.5 8t-13.5-4l-11-11q-46-39-91.5-78.5t-90.5-78.5q-29-24-57.5-48.5t-56.5-48.5q-16-13-32-26.5t-31-28.5q-6-6-7.5-13t3.5-14q4-6 11.5-7t14.5 3v0zM595 291q7-7 14-13t14-13q26 23 51 45t49 44q18 15 35.5 30.5t34.5 30.5l30 26t29 26q6 5 7 11.5t-3 12.5q-3 6-8.5 8t-12.5 0q-3-1-6-3.5t-5-4.5q-53-46-106-92.5t-106-92.5q-4-4-8.5-7.5t-8.5-7.5v0zM104 493q-9 7-18 5.5t-13-11.5q-3-8 0-13.5t9-10.5q41-36 83-72l84-72q15-13 30.5-26.5t31.5-27.5q7 7 14 13t15 13q-2 1-3.5 1.5t-2.5 1.5q-45 39-89 77t-89 77q-13 11-26 22.5t-26 22.5v0zM379 851q11-1 19 2t15 10q14 14 29 26.5t30 25.5q17-14 33.5-28.5t32.5-28.5q2-2 4.5-4t4.5-2q14-1 27.5-1h28.5q-30 27-59 52.5t-58 50.5q-7 6-14 6t-13-5q-29-26-58-51.5t-60-52.5q11 0 20.5 0.5t17.5-0.5v0z" />
<glyph unicode="&#xe954;" glyph-name="failed-status-icon" horiz-adv-x="167" d="M20 894q0 22 11.5 39t30.5 24q19 6 38.5 0.5t32.5-21.5q8-9 11-19t3-22v-624q0-29-18-47t-46-18q-27 0-45 18t-18 47v623zM82-64q-34 0-58 24.5t-24 58.5 24.5 59 58.5 25q35 0 59.5-25.5t24.5-59.5q-1-35-25.5-58.5t-59.5-23.5v0z" />
<glyph unicode="&#xe955;" glyph-name="order-commission" horiz-adv-x="1246" d="M419 114q-59 38-100 83t-64.5 97.5-29.5 113.5q-6 60 6 129h-206q-12 0-18.5 6t-6.5 16 6.5 16 18.5 6h314q5 0 8.5 1.5t7.5 4.5q31 25 62.5 49.5t63.5 48.5q28 22 55.5 44t55.5 44q2 2 4.5 3.5t6.5 5.5h-182q-7 0-12.5-2t-11.5-6q-33-24-67-48t-67-48q-12-8-21-7.5t-16 9.5q-6 9-3.5 17.5t13.5 16.5q37 26 73.5 52.5t73.5 52.5q6 4 12 5.5t12 1.5h571v89h-673q-6 0-10.5-1.5t-8.5-4.5q-54-34-108-68.5t-107-69.5q-12-7-24-9.5t-26-1.5q-9 0-15 6.5t-6 15.5 6 15.5 15 6.5 16.5 2 14.5 7q53 34 106 67.5t105 67.5q10 6 20 9t22 3h688q18 0 24.5-6.5t6.5-24.5v-119q0-16-6.5-22t-22.5-6h-212q59-38 100-83 41-44 64.5-97t28.5-113q6-61-5-130 2-1 5-0.5t6 0.5h237q6 0 12-1.5t10-7.5q4-5 5-10.5t-2-12.5q-3-6-8.5-9.5t-12.5-3.5h-316q-4 0-7.5-0.5t-6.5-2.5l-122-96t-122-97q-1 0-2-1t-2-3h183q6 0 10.5 1.5t8.5 4.5q34 25 68.5 49.5t69.5 49.5q10 7 19 6.5t15-8.5q7-9 4.5-18t-12.5-17q-37-26-74.5-52.5t-74.5-53.5q-5-3-10-5t-11-2q-52 1-105 1h-468v-89h671q6 0 11 1t10 4q50 32 100.5 64t100.5 65q14 9 28.5 16t32.5 6q11-2 17.5-8t6.5-16q0-9-6.5-15t-17.5-6q-8 0-14-2t-13-6q-55-36-110-71t-111-70q-5-4-10.5-5.5t-12.5-1.5h-699q-17 0-23.5 6.5t-6.5 22.5q1 30 1 60.5v60.5q0 16 6.5 22t21.5 6h168zM922 357q10 39 12 76.5t-3 66.5q-12 63-41.5 114.5t-79.5 92.5q-30 24-63 40t-70 26q-5 1-9.5 0.5t-8.5-4.5q-36-28-71-56-36-28-71.5-56t-71.5-56q-35-28-71-56-5-4-10.5-6t-12.5-2h-72q-10-34-12.5-69t4.5-69q9-51 28-94 20-42 49.5-76t68.5-59q40-26 89-42 10-3 20.5-4.5t20.5-3.5q12-3 21-2.5t18 8.5q10 8 20 15.5t20 16.5q29 24 58 47l58 46q25 21 51 40t52 39q17 13 34.5 24t42.5 3v0zM564 400q6-1 10.5-3t8.5-6q6-8 13.5-9.5t15.5 3.5q7 3 9.5 9.5t0.5 13.5q-2 9-8 13t-15 5q-25 1-41.5 15.5t-22.5 38.5q-4 21 5.5 41t29.5 30q6 3 7.5 6.5t1.5 8.5q0 13 6 19.5t16 6.5q10 1 16-6t6-19q0-6 1.5-10t7.5-6q7-3 12-7.5t9-10.5q7-8 6.5-17t-7.5-15-15.5-5.5-16.5 8.5q-10 10-19.5 10.5t-16.5-8.5q-4-5-5-10.5t2-11.5q3-8 9-11t14-3q28-2 46.5-22t17.5-48q-1-18-10.5-32.5t-25.5-22.5q-5-3-7-6t-2-9q0-13-6-20t-17-7q-10 1-15.5 7.5t-5.5 19.5q0 5-2 8.5t-7 5.5q-8 3-13.5 9t-10.5 12q-4 6-4 12t3 12q4 5 9 7.5t10 3.5v0z" />
</font>
</defs>
</svg>
