<?xml version="1.0" standalone="no"?>
<!DOCTYPE svg PUBLIC "-//W3C//DTD SVG 1.1//EN" "http://www.w3.org/Graphics/SVG/1.1/DTD/svg11.dtd" >
<svg xmlns="http://www.w3.org/2000/svg">
<metadata>Generated by IcoMoon</metadata>
<defs>
<font id="mvx-admin-panel-icon" horiz-adv-x="1024">
<font-face units-per-em="1024" ascent="960" descent="-64" />
<missing-glyph horiz-adv-x="1024" />
<glyph unicode="&#x20;" horiz-adv-x="512" d="" />
<glyph unicode="&#xe900;" glyph-name="add" d="M1008 499.2h-444.8v444.8c0 9.6-6.4 16-16 16h-70.4c-9.6 0-16-6.4-16-16v-444.8h-444.8c-9.6 0-16-6.4-16-16v-70.4c0-9.6 6.4-16 16-16h444.8v-444.8c0-9.6 6.4-16 16-16h70.4c9.6 0 16 6.4 16 16v444.8h444.8c9.6 0 16 6.4 16 16v70.4c0 9.6-6.4 16-16 16z" />
<glyph unicode="&#xe901;" glyph-name="approve" d="M886.4 918.4c9.6-9.6 22.4-22.4 32-32 86.4-108.8 38.4-268.8-96-310.4-51.2-16-89.6-48-118.4-92.8-16-25.6-22.4-57.6-25.6-89.6 0-3.2 0-6.4 0-9.6 0 0 0 0 0 0-73.6 44.8-144 92.8-217.6 137.6 3.2 0 6.4 3.2 6.4 3.2 76.8 35.2 118.4 118.4 105.6 201.6-12.8 76.8 12.8 140.8 70.4 188.8 60.8 48 128 54.4 198.4 25.6 3.2 0 9.6-3.2 12.8-3.2 9.6-6.4 22.4-12.8 32-19.2zM67.2 304c-9.6 16-6.4 28.8 3.2 41.6s16 25.6 25.6 38.4c204.8-128 409.6-256 614.4-387.2-3.2-6.4-9.6-12.8-12.8-19.2s-9.6-12.8-12.8-19.2c-6.4-16-19.2-22.4-38.4-19.2-192 118.4-384 243.2-579.2 364.8zM432 240c-108.8 67.2-214.4 137.6-323.2 204.8-22.4 12.8-28.8 32-12.8 54.4 12.8 19.2 25.6 38.4 44.8 51.2 44.8 35.2 108.8 38.4 156.8 6.4 160-99.2 316.8-201.6 476.8-300.8 64-41.6 83.2-128 44.8-192-3.2-6.4-9.6-12.8-12.8-22.4-12.8-19.2-25.6-22.4-44.8-9.6-73.6 44.8-147.2 92.8-217.6 137.6-38.4 22.4-73.6 44.8-112 70.4z" />
<glyph unicode="&#xe902;" glyph-name="close" d="M924.8 953.6l-412.8-412.8-412.8 412.8c-9.6 9.6-22.4 9.6-28.8 0l-64-64c-9.6-9.6-9.6-22.4 0-28.8l412.8-412.8-412.8-412.8c-9.6-9.6-9.6-22.4 0-28.8l64-64c9.6-9.6 22.4-9.6 28.8 0l412.8 412.8 412.8-412.8c9.6-9.6 22.4-9.6 28.8 0l64 64c9.6 9.6 9.6 22.4 0 28.8l-412.8 412.8 412.8 412.8c9.6 9.6 9.6 22.4 0 28.8l-64 64c-9.6 9.6-22.4 9.6-28.8 0z" />
<glyph unicode="&#xe903;" glyph-name="down-arrow" d="M1024 668.8c-3.2-16-12.8-25.6-25.6-35.2-150.4-150.4-297.6-297.6-448-448-19.2-19.2-41.6-25.6-64-12.8-6.4 3.2-9.6 6.4-12.8 12.8-150.4 150.4-304 304-454.4 454.4-9.6 9.6-12.8 19.2-19.2 28.8 0 6.4 0 12.8 0 19.2 6.4 12.8 9.6 25.6 22.4 32 9.6 6.4 22.4 9.6 35.2 9.6 304 0 608 0 908.8 0 3.2 0 6.4 0 6.4 0 19.2 0 35.2-9.6 44.8-28.8 3.2-3.2 3.2-9.6 6.4-12.8 0-6.4 0-12.8 0-19.2z" />
<glyph unicode="&#xe904;" glyph-name="download" d="M192 521.6c12.8 176 156.8 288 320 294.4 60.8 3.2 118.4-19.2 172.8-51.2s96-76.8 121.6-131.2c28.8-57.6 35.2-115.2 25.6-176 16-3.2 32-3.2 48-6.4 86.4-19.2 147.2-99.2 144-188.8-3.2-86.4-67.2-163.2-156.8-176-9.6-3.2-22.4-3.2-32-3.2-204.8 0-406.4 0-611.2 0-112 0-201.6 76.8-220.8 185.6-19.2 102.4 35.2 198.4 134.4 240 19.2 3.2 35.2 6.4 54.4 12.8zM476.8 336c0 0 0-3.2 0 0-9.6 6.4-16 12.8-22.4 19.2s-12.8 12.8-19.2 19.2-35.2 12.8-48 0c-12.8-12.8-12.8-32 0-44.8 32-32 67.2-67.2 99.2-99.2 12.8-12.8 32-12.8 44.8 0 32 32 67.2 64 99.2 99.2 9.6 9.6 12.8 19.2 9.6 32-6.4 25.6-38.4 35.2-57.6 16-12.8-12.8-22.4-25.6-35.2-35.2 0 0-3.2 0-3.2 3.2 0 9.6 0 19.2 0 28.8 0 73.6 0 150.4 0 224 0 9.6-3.2 19.2-9.6 25.6-6.4 12.8-22.4 16-38.4 9.6-12.8-6.4-22.4-16-22.4-35.2 0-80 0-163.2 0-243.2 3.2-12.8 3.2-16 3.2-19.2z" />
<glyph unicode="&#xe905;" glyph-name="edit" d="M883.2-64h-742.4l-6.4 3.2c0 0 0 0 0 0-54.4 9.6-92.8 41.6-118.4 89.6-6.4 9.6-9.6 22.4-9.6 32 0 3.2-3.2 6.4-3.2 9.6l-3.2 6.4v742.4l3.2 6.4c0 0 0 0 0 0 9.6 54.4 41.6 92.8 89.6 118.4 9.6 6.4 22.4 9.6 32 9.6 3.2 0 6.4 3.2 9.6 3.2l6.4 3.2h742.4l6.4-3.2c0 0 0 0 0 0 54.4-9.6 92.8-41.6 118.4-89.6 6.4-9.6 9.6-22.4 9.6-32 0-3.2 3.2-6.4 3.2-9.6l3.2-6.4v-742.4l-3.2-6.4c0 0 0 0 0 0-9.6-54.4-41.6-92.8-89.6-118.4-9.6-6.4-22.4-9.6-32-9.6-3.2 0-6.4-3.2-9.6-3.2l-6.4-3.2zM153.6 12.8h716.8c3.2 0 6.4 0 6.4 3.2 6.4 3.2 12.8 3.2 19.2 6.4 28.8 12.8 44.8 35.2 48 64 0 3.2 0 3.2 0 6.4v713.6c0 3.2 0 6.4-3.2 6.4-3.2 6.4-3.2 12.8-6.4 19.2-12.8 28.8-35.2 44.8-64 48-3.2 0-3.2 0-3.2 0h-713.6c-3.2 0-6.4 0-6.4-3.2-9.6 3.2-16 0-19.2 0-28.8-12.8-44.8-35.2-48-64 0-3.2 0-3.2 0-3.2v-716.8c0-3.2 0-6.4 3.2-6.4 3.2-6.4 3.2-12.8 6.4-19.2 12.8-28.8 35.2-44.8 64-48-3.2-6.4 0-6.4 0-6.4zM812.8 694.4c-19.2 19.2-38.4 38.4-57.6 57.6-6.4 6.4-12.8 9.6-16 12.8-28.8 16-64 12.8-89.6-16-121.6-121.6-243.2-243.2-364.8-364.8-3.2-3.2-3.2-3.2-3.2-6.4l-19.2-19.2 160-160 19.2 16c0 0 3.2 3.2 3.2 3.2l83.2 83.2c96 96 188.8 188.8 284.8 284.8 32 35.2 32 76.8 0 108.8zM272 323.2l-35.2 35.2-12.8-57.6c-3.2-6.4-3.2-12.8-6.4-22.4-6.4-28.8-16-57.6-22.4-89.6-6.4-19.2 0-38.4 12.8-51.2 9.6-9.6 22.4-16 38.4-16 6.4 0 9.6 0 16 3.2 28.8 6.4 57.6 16 86.4 22.4 12.8 3.2 22.4 6.4 35.2 9.6l41.6 12.8-153.6 153.6z" />
<glyph unicode="&#xe906;" glyph-name="knowledge-topbar" d="M470.4-64c-19.2 3.2-25.6 16-28.8 35.2-3.2 9.6-6.4 19.2-16 22.4-16 6.4-25.6 19.2-25.6 38.4 0 12.8 0 22.4 0 35.2 0 16 12.8 28.8 28.8 28.8 57.6 0 118.4 0 176 0 16 0 28.8-12.8 28.8-28.8 0-12.8 0-22.4 0-35.2 0-19.2-12.8-35.2-32-41.6-6.4-3.2-9.6-6.4-9.6-9.6s-3.2-6.4-3.2-9.6c-3.2-16-12.8-28.8-28.8-32-35.2-3.2-60.8-3.2-89.6-3.2zM521.6 960c16-6.4 22.4-19.2 19.2-38.4 0-28.8 0-60.8 0-89.6 0-12.8-9.6-25.6-25.6-25.6-12.8 0-25.6 6.4-32 19.2 0 3.2 0 9.6 0 12.8 0 28.8 0 57.6 0 86.4 0 16 3.2 28.8 19.2 38.4 6.4-3.2 12.8-3.2 19.2-3.2zM512 131.2c-22.4 0-48 0-70.4 0-28.8 0-41.6 12.8-48 38.4-9.6 44.8-28.8 86.4-60.8 118.4-32 35.2-57.6 76.8-67.2 124.8-25.6 118.4 41.6 246.4 153.6 288s230.4 6.4 300.8-92.8c64-92.8 57.6-224-16-307.2-32-35.2-57.6-70.4-67.2-118.4 0-6.4-3.2-9.6-3.2-16-3.2-25.6-19.2-38.4-44.8-38.4-25.6 3.2-51.2 3.2-76.8 3.2zM502.4 649.6c-44.8-3.2-83.2-19.2-118.4-51.2-38.4-35.2-54.4-80-57.6-131.2 0-16 9.6-28.8 25.6-28.8s28.8 9.6 32 25.6c0 3.2 0 6.4 0 9.6 3.2 54.4 41.6 99.2 92.8 112 12.8 3.2 22.4 3.2 35.2 6.4 16 3.2 25.6 16 22.4 32 3.2 16-9.6 25.6-32 25.6zM99.2 441.6c-16 0-32 0-48 0-19.2 0-32 12.8-32 28.8s12.8 28.8 28.8 28.8c32 0 64 0 96 0 19.2 0 28.8-12.8 28.8-28.8s-12.8-28.8-32-28.8c-9.6-3.2-25.6 0-41.6 0zM924.8 441.6c-16 0-32 0-48 0-19.2 0-32 12.8-32 28.8s12.8 28.8 32 28.8c32 0 64 0 96 0 19.2 0 32-12.8 28.8-28.8 0-16-12.8-28.8-32-28.8-12.8-3.2-28.8 0-44.8 0zM835.2 825.6c16 0 25.6-6.4 28.8-16 6.4-12.8 3.2-22.4-6.4-32-16-16-32-32-48-48-6.4-6.4-16-16-22.4-22.4-12.8-12.8-28.8-12.8-41.6 0-9.6 12.8-9.6 28.8 0 41.6 22.4 22.4 44.8 48 70.4 70.4 9.6 0 16 3.2 19.2 6.4zM252.8 694.4c-6.4 3.2-12.8 6.4-16 12.8-25.6 22.4-48 44.8-70.4 67.2-12.8 12.8-12.8 28.8 0 41.6s28.8 12.8 41.6 0c19.2-22.4 44.8-48 67.2-70.4 9.6-9.6 12.8-19.2 6.4-32-6.4-9.6-16-16-28.8-19.2z" />
<glyph unicode="&#xe907;" glyph-name="no" d="M924.8 953.6l-412.8-412.8-412.8 412.8c-9.6 9.6-22.4 9.6-28.8 0l-64-64c-9.6-9.6-9.6-22.4 0-28.8l412.8-412.8-412.8-412.8c-9.6-9.6-9.6-22.4 0-28.8l64-64c9.6-9.6 22.4-9.6 28.8 0l412.8 412.8 412.8-412.8c9.6-9.6 22.4-9.6 28.8 0l64 64c9.6 9.6 9.6 22.4 0 28.8l-412.8 412.8 412.8 412.8c9.6 9.6 9.6 22.4 0 28.8l-64 64c-9.6 9.6-22.4 9.6-28.8 0z" />
<glyph unicode="&#xe908;" glyph-name="search" d="M755.2 140.8c-208-166.4-496-118.4-646.4 70.4-147.2 182.4-134.4 438.4 28.8 608 160 163.2 422.4 185.6 604.8 44.8 102.4-76.8 163.2-182.4 179.2-310.4s-19.2-240-99.2-345.6c3.2-3.2 9.6-3.2 12.8-9.6 57.6-57.6 118.4-118.4 176-176 16-16 22.4-32 16-54.4-9.6-35.2-51.2-48-80-25.6-3.2 3.2-6.4 6.4-9.6 9.6-57.6 57.6-118.4 115.2-176 176-3.2 3.2-6.4 6.4-6.4 12.8zM822.4 496c0 198.4-156.8 358.4-355.2 358.4-198.4 3.2-358.4-156.8-358.4-355.2s160-358.4 358.4-358.4c195.2 0 355.2 156.8 355.2 355.2z" />
<glyph unicode="&#xe909;" glyph-name="select-checkbox" d="M963.2 806.4c-6.4 6.4-16 6.4-22.4 0l-569.6-566.4-288 288c-6.4 6.4-16 6.4-22.4 0l-54.4-54.4c-6.4-6.4-6.4-16 0-22.4l364.8-364.8 646.4 643.2c6.4 6.4 6.4 16 0 22.4l-54.4 54.4z" />
<glyph unicode="&#xe90a;" glyph-name="yes" d="M963.2 806.4c-6.4 6.4-16 6.4-22.4 0l-569.6-566.4-288 288c-6.4 6.4-16 6.4-22.4 0l-54.4-54.4c-6.4-6.4-6.4-16 0-22.4l364.8-364.8 646.4 643.2c6.4 6.4 6.4 16 0 22.4l-54.4 54.4z" />
<glyph unicode="&#xe90b;" glyph-name="tab-activity-reminder" d="M512 851.2c256-3.2 460.8-208 457.6-464-3.2-249.6-211.2-454.4-464-451.2-256 3.2-457.6 211.2-454.4 467.2 6.4 246.4 214.4 451.2 460.8 448zM460.8 496c0 0 0 0 0 0 0-32 0-67.2 0-99.2 0-16 6.4-32 16-41.6 32-32 64-64 96-96 0 0 3.2-3.2 3.2-3.2 19.2-19.2 51.2-19.2 70.4 0s22.4 51.2 0 70.4c-25.6 25.6-51.2 54.4-80 80-6.4 6.4-9.6 12.8-9.6 19.2 0 54.4 0 108.8 0 163.2 0 6.4 0 12.8 0 19.2-6.4 25.6-28.8 41.6-57.6 38.4-22.4-3.2-41.6-22.4-44.8-48 6.4-32 6.4-67.2 6.4-102.4zM313.6 956.8c22.4 0 41.6-16 48-35.2 6.4-22.4 0-44.8-19.2-57.6-54.4-35.2-105.6-70.4-156.8-102.4-25.6-19.2-54.4-12.8-70.4 12.8-16 22.4-9.6 54.4 12.8 70.4 48 32 96 64 147.2 96 12.8 9.6 22.4 12.8 38.4 16-3.2 3.2-3.2 0 0 0zM918.4 800c0-19.2-9.6-32-25.6-41.6s-35.2-9.6-51.2 0c-54.4 35.2-105.6 70.4-160 105.6-22.4 16-28.8 44.8-12.8 70.4 16 22.4 44.8 32 67.2 16 54.4-35.2 108.8-70.4 163.2-108.8 12.8-9.6 19.2-22.4 19.2-41.6z" />
<glyph unicode="&#xe90c;" glyph-name="tab-announcement" d="M16 195.2c-3.2 6.4-3.2 16-6.4 22.4-16 73.6 6.4 153.6 86.4 198.4 83.2 44.8 156.8 99.2 227.2 163.2 60.8 57.6 112 118.4 156.8 185.6 3.2 3.2 6.4 6.4 6.4 9.6 25.6-227.2 124.8-416 291.2-569.6-28.8 0-60.8 0-96 0 0-6.4 3.2-16 3.2-22.4 9.6-80-19.2-144-86.4-185.6-73.6-51.2-153.6-54.4-233.6-12.8-48 25.6-83.2 64-96 118.4 0 0 0 3.2-3.2 6.4-9.6-3.2-16-9.6-25.6-12.8-16-6.4-35.2-12.8-51.2-16-48-6.4-89.6 12.8-128 41.6-6.4 12.8-16 25.6-28.8 38.4-6.4 12.8-9.6 22.4-16 35.2zM640 204.8c-54.4-3.2-105.6-12.8-160-25.6s-108.8-28.8-163.2-51.2c-6.4-3.2-9.6-6.4-6.4-12.8 6.4-25.6 22.4-48 41.6-67.2 64-60.8 169.6-64 240-6.4 51.2 41.6 67.2 102.4 48 163.2zM953.6 608c6.4-12.8 9.6-25.6 16-38.4 28.8-73.6 51.2-147.2 51.2-227.2 0-38.4-3.2-73.6-22.4-105.6-19.2-35.2-51.2-48-92.8-41.6-32 6.4-60.8 22.4-89.6 41.6-32 22.4-73.6 64-99.2 99.2 51.2 28.8 80 73.6 89.6 131.2 6.4 38.4-3.2 73.6-22.4 105.6-22.4 38.4-57.6 67.2-99.2 80-44.8 12.8-86.4 9.6-128-9.6-16 64-28.8 128-19.2 192 3.2 19.2 9.6 38.4 19.2 54.4 19.2 35.2 54.4 48 92.8 41.6 32-6.4 60.8-22.4 86.4-41.6 57.6-41.6 102.4-99.2 144-156.8 12.8-16 22.4-35.2 32-51.2 16-22.4 28.8-48 41.6-73.6z" />
<glyph unicode="&#xe90d;" glyph-name="tab-commissions" d="M515.2 758.4c-51.2 0-99.2 0-150.4 0-6.4 0-12.8 3.2-16 6.4-25.6 32-48 67.2-54.4 108.8-3.2 19.2-3.2 38.4 0 54.4 3.2 22.4 19.2 32 38.4 32 22.4-3.2 48-6.4 70.4-12.8 44.8-12.8 89.6-25.6 137.6-19.2 38.4 6.4 73.6 16 108.8 22.4 16 6.4 28.8 9.6 44.8 9.6 22.4 0 35.2-9.6 41.6-32 6.4-25.6 3.2-51.2-6.4-76.8-12.8-32-32-60.8-51.2-89.6-3.2-3.2-9.6-3.2-12.8-3.2-51.2 0-102.4 0-150.4 0zM947.2 288c-9.6 57.6-38.4 108.8-70.4 156.8-57.6 86.4-124.8 160-198.4 230.4-3.2 3.2-9.6 3.2-12.8 3.2-51.2 0-99.2 0-150.4 0s-99.2 0-150.4 0c-6.4 0-12.8-3.2-16-6.4-12.8-12.8-25.6-25.6-38.4-38.4-64-64-121.6-131.2-169.6-204.8-41.6-70.4-73.6-140.8-64-224 6.4-54.4 22.4-102.4 57.6-144 41.6-48 96-76.8 153.6-92.8 64-19.2 128-25.6 195.2-25.6 83.2-3.2 163.2 3.2 243.2 22.4 51.2 12.8 102.4 32 140.8 70.4 76.8 64 96 153.6 80 252.8zM352 448v0c3.2 9.6 6.4 16 9.6 22.4s9.6 12.8 12.8 16c9.6 6.4 19.2 12.8 25.6 16 0-6.4-3.2-9.6-6.4-16-3.2-3.2-6.4-9.6-6.4-12.8-3.2-6.4-3.2-9.6-6.4-16s-3.2-9.6-3.2-16 0-19.2 6.4-28.8c3.2-6.4 6.4-9.6 9.6-12.8s9.6-9.6 12.8-12.8c3.2-3.2 9.6-6.4 16-6.4s9.6 0 16 0c9.6 3.2 16 9.6 22.4 19.2s9.6 22.4 9.6 32c0 3.2 0 9.6-3.2 16s-3.2 9.6-6.4 16c-3.2 3.2-6.4 9.6-9.6 12.8s-6.4 6.4-9.6 9.6c-3.2 3.2-6.4 6.4-9.6 6.4-3.2 3.2-6.4 3.2-9.6 6.4-3.2 0-6.4 3.2-9.6 3.2s-3.2 3.2-6.4 3.2l-6.4 3.2c-3.2 6.4-6.4 9.6-6.4 12.8s0 6.4 3.2 9.6c3.2 3.2 6.4 6.4 9.6 9.6s9.6 3.2 16 3.2c3.2 0 9.6 0 16-3.2v0c3.2 0 6.4-3.2 9.6-3.2s6.4-3.2 9.6-6.4c3.2-3.2 6.4-3.2 9.6-6.4s6.4-6.4 9.6-9.6 12.8-16 19.2-25.6c3.2-6.4 9.6-16 12.8-25.6s6.4-19.2 6.4-28.8c0-9.6-3.2-19.2-6.4-32 0-6.4-3.2-9.6-6.4-16-3.2-3.2-6.4-9.6-6.4-12.8-3.2-3.2-6.4-6.4-9.6-12.8-3.2-3.2-9.6-9.6-12.8-12.8s-9.6-6.4-16-9.6c-6.4-3.2-12.8-3.2-16-6.4-6.4 0-12.8 0-19.2 0s-12.8 3.2-16 3.2-19.2 9.6-25.6 16c-6.4 6.4-16 12.8-19.2 22.4-6.4 6.4-9.6 16-12.8 25.6s-3.2 16-3.2 25.6c3.2 9.6 3.2 16 6.4 22.4zM633.6 108.8c-3.2-12.8-9.6-22.4-19.2-32s-19.2-12.8-32-16c-9.6-3.2-19.2-3.2-32-3.2-9.6 0-19.2 0-28.8 3.2s-16 3.2-25.6 9.6c-3.2 3.2-9.6 3.2-12.8 6.4s-6.4 6.4-12.8 9.6c0 3.2-3.2 3.2-3.2 6.4s-3.2 6.4-3.2 12.8v16c0 3.2 3.2 6.4 3.2 9.6s3.2 6.4 6.4 9.6c3.2 6.4 9.6 12.8 12.8 16 6.4 6.4 9.6 9.6 12.8 12.8s9.6 9.6 12.8 9.6c3.2 3.2 9.6 6.4 12.8 9.6l-3.2-16c-3.2-3.2-3.2-6.4-6.4-9.6s-3.2-6.4-6.4-12.8c-3.2-3.2-3.2-6.4-6.4-12.8-3.2-3.2-3.2-9.6-6.4-12.8l-3.2-12.8c3.2-3.2 6.4-6.4 12.8-6.4 6.4-3.2 12.8-3.2 19.2-3.2s12.8 0 19.2 0c6.4 0 12.8 3.2 19.2 3.2 6.4 3.2 9.6 3.2 12.8 6.4s3.2 6.4 6.4 9.6c0 6.4 0 9.6 0 19.2 0 6.4-3.2 12.8-3.2 19.2v0c-3.2 6.4-3.2 12.8-6.4 19.2s-6.4 9.6-9.6 16c-3.2 3.2-6.4 6.4-9.6 9.6s-6.4 3.2-9.6 6.4c-3.2 0-6.4 3.2-9.6 3.2s-6.4 3.2-9.6 3.2l-22.4 3.2-16 19.2c0 3.2 3.2 6.4 6.4 9.6s6.4 6.4 9.6 9.6c3.2 3.2 6.4 3.2 12.8 6.4 3.2 0 9.6 3.2 16 3.2 3.2 0 9.6 0 16-3.2 6.4 0 12.8-3.2 19.2-6.4s12.8-6.4 19.2-12.8c3.2-3.2 6.4-6.4 9.6-9.6s6.4-6.4 9.6-9.6c3.2-3.2 6.4-6.4 6.4-9.6 3.2-3.2 3.2-6.4 6.4-12.8 3.2-3.2 3.2-9.6 6.4-12.8s3.2-9.6 6.4-12.8c0-6.4 3.2-12.8 3.2-16 0-6.4 3.2-12.8 3.2-19.2 0-19.2-3.2-28.8-3.2-35.2zM688 550.4c-3.2-6.4-3.2-12.8-9.6-22.4 0-3.2-3.2-3.2-3.2-6.4s-3.2-6.4-6.4-9.6c-3.2-3.2-3.2-6.4-6.4-9.6s-3.2-6.4-6.4-9.6c-3.2-3.2-3.2-6.4-6.4-9.6s-6.4-6.4-6.4-12.8c-3.2-3.2-6.4-9.6-6.4-12.8-3.2-3.2-6.4-6.4-9.6-12.8-3.2-3.2-6.4-9.6-9.6-12.8s-6.4-9.6-9.6-12.8c-3.2-3.2-6.4-9.6-9.6-12.8s-6.4-9.6-9.6-16c-3.2-3.2-6.4-9.6-9.6-16s-6.4-9.6-9.6-16c-3.2-6.4-6.4-9.6-9.6-16-3.2-3.2-6.4-9.6-9.6-16s-6.4-9.6-9.6-16c-3.2-6.4-6.4-9.6-9.6-16-3.2-3.2-6.4-9.6-9.6-16s-6.4-9.6-9.6-16c-3.2-6.4-6.4-9.6-9.6-16-3.2-3.2-6.4-9.6-9.6-12.8-3.2-6.4-6.4-9.6-9.6-12.8s-6.4-9.6-9.6-12.8c-3.2-3.2-6.4-9.6-9.6-12.8s-6.4-9.6-9.6-12.8c-3.2-3.2-6.4-6.4-9.6-12.8-3.2-3.2-6.4-6.4-9.6-9.6s-6.4-6.4-9.6-9.6c-3.2-3.2-6.4-6.4-9.6-9.6s-6.4-6.4-9.6-9.6c-3.2-3.2-6.4-6.4-9.6-9.6s-6.4-6.4-9.6-9.6c-3.2-3.2-6.4-6.4-9.6-9.6s-6.4-6.4-9.6-6.4c-3.2-3.2-6.4-3.2-9.6-6.4v0c-6.4-3.2-12.8-6.4-19.2-6.4 3.2 3.2 9.6 9.6 12.8 16s9.6 9.6 12.8 16c6.4 6.4 9.6 12.8 16 19.2 3.2 3.2 6.4 6.4 6.4 9.6 3.2 3.2 6.4 6.4 6.4 12.8 3.2 3.2 3.2 6.4 6.4 9.6s3.2 6.4 6.4 9.6c3.2 3.2 3.2 6.4 6.4 9.6s6.4 6.4 6.4 12.8c3.2 3.2 6.4 6.4 9.6 12.8 3.2 3.2 6.4 6.4 9.6 12.8 3.2 3.2 6.4 9.6 9.6 12.8s6.4 9.6 9.6 12.8c3.2 3.2 6.4 9.6 9.6 12.8s6.4 9.6 9.6 12.8c3.2 3.2 6.4 9.6 9.6 12.8s6.4 9.6 9.6 12.8c3.2 6.4 6.4 9.6 9.6 16 3.2 3.2 6.4 9.6 9.6 16 3.2 3.2 6.4 9.6 9.6 12.8s6.4 9.6 9.6 12.8c3.2 3.2 6.4 9.6 9.6 12.8 3.2 6.4 6.4 9.6 9.6 12.8s6.4 9.6 9.6 12.8c3.2 3.2 6.4 9.6 9.6 12.8 3.2 6.4 6.4 9.6 9.6 16s6.4 9.6 9.6 16c3.2 3.2 6.4 9.6 9.6 12.8s6.4 9.6 9.6 12.8 12.8 16 16 25.6c3.2 3.2 3.2 6.4 6.4 12.8 3.2 3.2 6.4 6.4 6.4 9.6 3.2 3.2 3.2 6.4 6.4 9.6s3.2 6.4 6.4 6.4c6.4 9.6 9.6 16 16 22.4 3.2 6.4 9.6 9.6 12.8 12.8 6.4 3.2 9.6 6.4 12.8 6.4 0 0 3.2-3.2 6.4-9.6 3.2-3.2 3.2-9.6 3.2-16-12.8 12.8-16 6.4-16 3.2z" />
<glyph unicode="&#xe90e;" glyph-name="tab-disbursement" d="M944 185.6c-3.2 0-6.4 0-9.6 0-112 0-224 0-336 0-51.2 0-89.6 25.6-105.6 73.6-22.4 67.2 25.6 137.6 96 144 3.2 0 6.4 0 12.8 0 112 0 220.8 0 332.8 0 3.2 0 6.4 0 12.8 0-3.2-73.6-3.2-147.2-3.2-217.6zM627.2 246.4c0 0 0 0 0 0 3.2 0 6.4 0 12.8 0 25.6 0 41.6 19.2 41.6 44.8s-19.2 44.8-41.6 44.8c-6.4 0-16 0-22.4 0-22.4 0-41.6-16-41.6-38.4-3.2-22.4 9.6-44.8 32-51.2 3.2 0 9.6 0 19.2 0zM595.2 92.8c-83.2 0-156.8 51.2-185.6 128-48 121.6 35.2 256 166.4 268.8 9.6 0 19.2 0 28.8 0 99.2 0 144 0 243.2 0 12.8 38.4 6.4 86.4-32 112-38.4 28.8-76.8 32-128 28.8 0-16 0-35.2 0-51.2 0-3.2-3.2-12.8-6.4-12.8s-12.8 0-16 3.2c-35.2 25.6-70.4 51.2-105.6 76.8-118.4 0-236.8 0-355.2 0-96 0-169.6-67.2-185.6-160 0 0 0-3.2 0-3.2 0-128 0-256 0-384 3.2-9.6 3.2-19.2 6.4-32 19.2-76.8 89.6-131.2 172.8-131.2 188.8 0 374.4 0 563.2 0 86.4 0 163.2 64 179.2 147.2 0 3.2 0 6.4 0 9.6-3.2 0-6.4 0-9.6 0-112 0-224 0-336 0zM931.2 825.6c-57.6 48-124.8 67.2-195.2 73.6-19.2 0-35.2 0-54.4 3.2 0 16 0 28.8-3.2 44.8 0 6.4-3.2 12.8-6.4 12.8s-9.6 0-16-6.4c-22.4-19.2-48-41.6-70.4-60.8-28.8-25.6-54.4-48-83.2-73.6-12.8-12.8-12.8-25.6 3.2-38.4 3.2-3.2 6.4-6.4 12.8-9.6 12.8-9.6 25.6-19.2 38.4-28.8 35.2-25.6 70.4-48 105.6-73.6 3.2-3.2 12.8-6.4 16-3.2 3.2 0 6.4 9.6 6.4 12.8 0 16 0 35.2 0 51.2 51.2 6.4 108.8-6.4 150.4-32 38.4-25.6 60.8-60.8 67.2-96 6.4-28.8 3.2-57.6-9.6-83.2-16-35.2-44.8-64-76.8-86.4-6.4-3.2-9.6-6.4-16-9.6 3.2 0 3.2-3.2 3.2-3.2 3.2 0 3.2 0 6.4 0 48 16 92.8 38.4 128 73.6 96 96 92.8 246.4-6.4 332.8z" />
<glyph unicode="&#xe90f;" glyph-name="tab-general" d="M0 448c0 112 0 227.2 0 339.2 0 83.2 57.6 153.6 137.6 169.6 12.8 3.2 22.4 3.2 35.2 3.2 227.2 0 454.4 0 678.4 0 96 0 172.8-76.8 172.8-172.8 0-227.2 0-454.4 0-678.4 0-96-76.8-172.8-172.8-172.8-227.2 0-454.4 0-681.6 0-96 0-172.8 76.8-172.8 172.8 3.2 112 3.2 227.2 3.2 339.2zM633.6 585.6c51.2 0 99.2 0 150.4 0 16 0 28.8 6.4 35.2 22.4 9.6 22.4-6.4 48-35.2 48-99.2 0-198.4 0-297.6 0-9.6 0-12.8 3.2-16 12.8-22.4 60.8-92.8 99.2-160 83.2s-112-80-105.6-147.2c6.4-64 57.6-115.2 121.6-121.6 60.8-6.4 121.6 32 140.8 92.8 3.2 6.4 6.4 9.6 12.8 9.6 51.2 0 102.4 0 153.6 0zM390.4 310.4c-51.2 0-99.2 0-150.4 0-16 0-28.8-6.4-35.2-22.4-9.6-22.4 6.4-48 35.2-48 99.2 0 198.4 0 297.6 0 9.6 0 12.8-3.2 16-9.6 22.4-64 86.4-99.2 153.6-89.6 64 9.6 112 67.2 112 134.4s-48 124.8-112 134.4c-67.2 12.8-131.2-25.6-153.6-89.6-3.2-6.4-6.4-9.6-12.8-9.6-51.2 0-99.2 0-150.4 0zM342.4 688c38.4 0 67.2-32 67.2-70.4s-32-67.2-70.4-67.2c-38.4 0-67.2 32-67.2 67.2 0 38.4 32 70.4 70.4 70.4zM681.6 345.6c38.4 0 67.2-32 67.2-67.2 0-38.4-32-67.2-70.4-67.2s-67.2 32-67.2 67.2c3.2 35.2 35.2 67.2 70.4 67.2z" />
<glyph unicode="&#xe910;" glyph-name="tab-help" d="M553.6-76.8c-19.2 0-41.6 0-60.8 0-3.2 0-6.4 0-6.4 3.2-89.6 6.4-169.6 35.2-243.2 83.2-121.6 83.2-195.2 195.2-220.8 339.2-3.2 19.2-6.4 38.4-6.4 57.6s0 41.6 0 60.8c0 3.2 0 6.4 3.2 9.6 6.4 80 28.8 153.6 70.4 224 80 131.2 198.4 214.4 352 243.2 19.2 3.2 38.4 6.4 57.6 6.4s41.6 0 60.8 0c3.2 0 6.4 0 6.4-3.2 67.2-6.4 137.6-25.6 201.6-60.8 144-80 233.6-201.6 262.4-364.8 3.2-19.2 6.4-38.4 6.4-57.6s0-38.4 0-60.8c0-3.2 0-6.4-3.2-9.6-6.4-80-28.8-153.6-67.2-220.8-80-134.4-198.4-217.6-352-246.4-19.2 0-38.4 0-60.8-3.2zM531.2 736c-54.4 0-105.6-16-147.2-51.2-32-28.8-54.4-64-57.6-108.8 0-22.4 9.6-35.2 25.6-48 28.8-16 60.8-3.2 73.6 28.8 6.4 16 12.8 28.8 19.2 44.8 9.6 19.2 19.2 35.2 38.4 41.6 25.6 12.8 54.4 12.8 80 3.2 48-16 64-73.6 35.2-108.8-6.4-6.4-12.8-12.8-19.2-19.2-25.6-22.4-51.2-44.8-73.6-70.4-28.8-28.8-41.6-67.2-41.6-108.8 0-28.8 19.2-44.8 44.8-48s44.8 9.6 51.2 38.4c0 6.4 3.2 12.8 3.2 16 3.2 22.4 12.8 38.4 32 54.4 25.6 22.4 51.2 48 76.8 70.4 76.8 70.4 54.4 176-12.8 224-38.4 28.8-80 41.6-128 41.6zM518.4 134.4c35.2 0 60.8 25.6 60.8 57.6s-25.6 60.8-57.6 60.8c-35.2 0-60.8-25.6-60.8-57.6 0-35.2 25.6-60.8 57.6-60.8z" />
<glyph unicode="&#xe911;" glyph-name="tab-knowladgebase" d="M550.4 339.2c0 44.8 0 89.6 0 134.4 0 9.6 3.2 12.8 12.8 19.2 54.4 22.4 83.2 73.6 80 137.6-3.2 51.2-48 96-102.4 108.8-83.2 16-160-51.2-153.6-134.4 3.2-54.4 32-92.8 80-112 9.6-3.2 9.6-9.6 9.6-16 0-89.6 0-179.2 0-268.8 0-12.8-3.2-16-16-16-32 0-64 0-96 0-9.6 0-16 3.2-16 16-3.2 60.8-28.8 108.8-73.6 150.4-80 67.2-115.2 153.6-115.2 259.2 0 156.8 115.2 310.4 294.4 339.2 198.4 32 368-102.4 400-281.6 22.4-124.8-12.8-233.6-105.6-320-35.2-35.2-60.8-70.4-70.4-118.4-3.2-9.6-3.2-22.4-3.2-35.2 0-9.6-3.2-12.8-12.8-12.8-35.2 0-70.4 0-105.6 0-9.6 0-12.8 6.4-12.8 16 6.4 41.6 6.4 89.6 6.4 134.4zM512 57.6c-48 0-96 0-144 0-19.2 0-22.4 3.2-22.4 22.4 0 35.2 0 35.2 32 35.2 96 0 188.8 0 284.8 0 12.8 0 16-3.2 16-16 0-41.6 0-41.6-41.6-41.6s-83.2 0-124.8 0zM406.4 19.2c70.4 0 140.8 0 211.2 0-3.2-41.6-54.4-83.2-105.6-83.2-48 0-102.4 38.4-105.6 83.2zM457.6 611.2c0 28.8 25.6 54.4 54.4 54.4s57.6-25.6 54.4-57.6c0-28.8-25.6-54.4-54.4-54.4s-54.4 25.6-54.4 57.6z" />
<glyph unicode="&#xe912;" glyph-name="tab-migration" d="M512 6.4c-124.8 0-249.6 0-374.4 0-60.8 0-112 35.2-128 89.6-6.4 16-9.6 32-9.6 44.8 0 204.8 0 409.6 0 614.4 0 76.8 57.6 134.4 134.4 134.4s153.6 0 230.4 0c48 0 86.4-19.2 112-60.8 12.8-19.2 25.6-35.2 38.4-54.4 12.8-22.4 32-32 57.6-28.8 105.6 0 211.2 0 316.8 0 48 0 83.2-19.2 112-54.4 16-19.2 22.4-44.8 22.4-67.2 0-70.4 0-144 0-214.4 0-86.4 0-176 0-262.4 0-70.4-44.8-121.6-112-134.4-9.6 0-19.2 0-28.8 0-124.8-6.4-249.6-6.4-371.2-6.4zM579.2 435.2c-6.4-6.4-6.4-9.6-9.6-12.8-12.8-16-12.8-35.2 0-48s35.2-16 48-3.2c25.6 25.6 51.2 48 73.6 73.6 12.8 12.8 12.8 32 0 48-25.6 25.6-48 51.2-73.6 73.6-12.8 12.8-35.2 12.8-48-3.2-12.8-12.8-12.8-35.2-3.2-48 3.2-3.2 6.4-6.4 9.6-12.8-6.4 0-9.6 0-12.8 0-44.8 0-89.6 0-131.2 0-22.4 0-38.4-12.8-38.4-32 0-22.4 12.8-38.4 38.4-38.4 48 3.2 96 3.2 147.2 3.2zM444.8 316.8c6.4 6.4 9.6 9.6 9.6 12.8 12.8 16 12.8 35.2-3.2 48-12.8 12.8-35.2 12.8-48 0-25.6-25.6-51.2-48-73.6-73.6-12.8-12.8-12.8-35.2 0-48 25.6-25.6 48-51.2 73.6-73.6 12.8-12.8 35.2-12.8 48 0s12.8 35.2 3.2 48c-3.2 3.2-6.4 6.4-9.6 12.8 6.4 0 9.6 0 12.8 0 44.8 0 89.6 0 134.4 0 22.4 0 38.4 16 38.4 35.2 0 22.4-16 35.2-38.4 35.2-41.6 0-83.2 0-124.8 0-6.4 3.2-12.8 3.2-22.4 3.2z" />
<glyph unicode="&#xe913;" glyph-name="tab-policy" d="M518.4-64c-6.4 0-9.6 0-16 0-3.2 0-3.2 3.2-6.4 3.2-25.6 12.8-51.2 22.4-76.8 35.2-118.4 64-204.8 163.2-265.6 284.8-70.4 144-99.2 297.6-96 457.6 0 16 6.4 25.6 22.4 32 86.4 41.6 172.8 86.4 259.2 131.2 57.6 25.6 108.8 51.2 163.2 80 6.4 0 9.6 0 16 0 3.2-3.2 9.6-3.2 12.8-6.4 137.6-67.2 272-137.6 409.6-204.8 16-6.4 22.4-19.2 22.4-38.4 0-57.6-3.2-115.2-12.8-172.8-16-96-41.6-188.8-83.2-278.4-67.2-134.4-163.2-240-300.8-304-12.8-6.4-32-12.8-48-19.2zM841.6 640c3.2 16-6.4 28.8-19.2 35.2-96 48-195.2 96-291.2 147.2-12.8 6.4-22.4 6.4-35.2 0-96-48-195.2-99.2-291.2-147.2-12.8-6.4-22.4-16-19.2-32 3.2-25.6 3.2-51.2 9.6-76.8 12.8-86.4 35.2-172.8 73.6-252.8 51.2-102.4 124.8-185.6 227.2-240 12.8-6.4 25.6-6.4 38.4 0 80 41.6 144 99.2 192 172.8 73.6 118.4 105.6 252.8 115.2 393.6zM243.2 620.8c-3.2 6.4 3.2 9.6 9.6 12.8 83.2 41.6 166.4 83.2 249.6 124.8 6.4 3.2 9.6 3.2 16 0 83.2-41.6 166.4-83.2 252.8-124.8 6.4-3.2 9.6-6.4 9.6-12.8-12.8-124.8-44.8-246.4-115.2-352-38.4-54.4-86.4-99.2-144-131.2-6.4-3.2-9.6-3.2-16 0-76.8 44.8-134.4 108.8-176 185.6-44.8 80-67.2 169.6-80 259.2-3.2 9.6-3.2 22.4-6.4 38.4z" />
<glyph unicode="&#xe914;" glyph-name="tab-products" d="M1017.6 675.2c-9.6 28.8-28.8 54.4-54.4 67.2-131.2 70.4-262.4 137.6-393.6 204.8-12.8 6.4-28.8 9.6-41.6 12.8-9.6 0-22.4 0-32 0-54.4-12.8-102.4-44.8-153.6-70.4-92.8-48-182.4-96-275.2-140.8-35.2-19.2-57.6-48-67.2-86.4 0 0 0-3.2 0-3.2 0-140.8 0-281.6 0-419.2 0-6.4 3.2-12.8 6.4-19.2 9.6-32 28.8-54.4 60.8-70.4 96-48 192-99.2 288-147.2 28.8-16 60.8-32 89.6-44.8 16-9.6 35.2-12.8 54.4-19.2 9.6 0 22.4 0 32 0 57.6 12.8 105.6 48 156.8 73.6 89.6 44.8 176 89.6 265.6 134.4 38.4 19.2 64 48 73.6 92.8 0 0 0 0 0 3.2 0 140.8 0 281.6 0 419.2-3.2 3.2-6.4 6.4-9.6 12.8zM300.8 201.6c0-12.8-6.4-22.4-16-28.8-6.4-3.2-9.6-3.2-16-3.2s-9.6 0-16 3.2c-22.4 9.6-44.8 22.4-67.2 32-9.6 3.2-19.2 9.6-25.6 12.8-6.4 6.4-6.4 6.4-9.6 6.4-6.4 3.2-12.8 6.4-19.2 9.6-16 9.6-25.6 28.8-16 44.8s28.8 22.4 44.8 12.8c25.6-12.8 51.2-25.6 76.8-38.4 12.8-6.4 28.8-12.8 41.6-22.4 16-6.4 22.4-19.2 22.4-28.8v0zM297.6 310.4c-3.2-9.6-9.6-12.8-19.2-16-3.2 0-6.4-3.2-9.6-3.2-6.4 0-12.8 3.2-19.2 6.4-44.8 22.4-83.2 41.6-118.4 57.6-16 6.4-22.4 22.4-19.2 38.4s16 25.6 35.2 25.6h6.4c0 0 0 0 0 0 0-3.2 3.2-3.2 9.6-3.2 41.6-19.2 80-38.4 115.2-57.6 19.2-12.8 25.6-28.8 19.2-48zM896 604.8c-3.2-3.2-6.4-3.2-9.6-6.4h-3.2l-44.8-22.4c-96-48-195.2-96-291.2-147.2-3.2 0-3.2 0-3.2-3.2 0-89.6 0-182.4 0-272v-64c0-3.2 0-3.2 0-6.4 0-9.6-3.2-19.2-9.6-25.6s-12.8-9.6-22.4-9.6c0 0 0 0 0 0-19.2 0-32 16-32 35.2 0 28.8 0 57.6 0 86.4v83.2c0 12.8 0 28.8 0 41.6 0 41.6 0 83.2 0 128 0 6.4 0 6.4-3.2 6.4-89.6 44.8-182.4 92.8-272 137.6l-67.2 32c-3.2 0-3.2 3.2-6.4 3.2-16 9.6-22.4 28.8-12.8 44.8 6.4 16 25.6 22.4 41.6 16s32-16 48-25.6c6.4-3.2 12.8-6.4 19.2-9.6l51.2-25.6c73.6-38.4 150.4-76.8 227.2-115.2 3.2-3.2 3.2-3.2 6.4 0 99.2 48 198.4 99.2 294.4 147.2l48 25.6c3.2 0 6.4 3.2 9.6 3.2 16 6.4 32 0 41.6-16s6.4-32-9.6-41.6z" />
<glyph unicode="&#xe915;" glyph-name="tab-products-capability" d="M1001.6 720c-9.6 16-25.6 25.6-41.6 32-48 22.4-99.2 44.8-147.2 64-3.2 3.2-9.6 0-12.8 0-160-76.8-323.2-150.4-483.2-227.2-6.4-3.2-6.4-6.4-6.4-12.8 0-41.6 0-86.4 0-128 0-3.2 0-6.4 0-12.8-3.2 0-6.4 3.2-9.6 3.2-22.4 9.6-44.8 22.4-70.4 32-6.4 3.2-6.4 6.4-6.4 12.8 0 44.8 0 86.4 0 131.2 0 9.6 3.2 12.8 9.6 16 160 73.6 316.8 150.4 476.8 224 3.2 0 6.4 3.2 12.8 6.4-12.8 6.4-22.4 9.6-32 16-41.6 19.2-86.4 38.4-128 57.6-32 12.8-64 12.8-92.8 0-137.6-60.8-268.8-121.6-400-179.2-38.4-16-60.8-41.6-67.2-80-3.2-3.2-3.2-3.2-3.2-6.4 0-147.2 0-294.4 0-438.4 6.4-16 9.6-32 16-48 9.6-22.4 28.8-35.2 51.2-44.8 134.4-57.6 268.8-115.2 400-172.8 28.8-12.8 57.6-12.8 89.6 0 134.4 57.6 268.8 115.2 400 172.8 38.4 16 60.8 48 64 86.4 0 3.2 0 3.2 3.2 6.4 0 147.2 0 294.4 0 438.4-6.4 16-12.8 35.2-22.4 51.2zM729.6 297.6c-3.2-9.6-6.4-16-9.6-25.6-12.8-28.8-25.6-54.4-38.4-83.2-3.2-3.2-3.2-6.4-6.4-12.8-6.4-9.6-16-9.6-25.6 0-16 19.2-28.8 35.2-44.8 54.4-6.4 9.6-6.4 19.2 3.2 25.6 3.2 3.2 6.4 6.4 12.8 6.4 12.8 3.2 16 12.8 16 25.6 0 44.8 0 89.6-3.2 134.4 0 16 6.4 22.4 19.2 28.8 9.6 3.2 16 6.4 25.6 9.6s16 3.2 16-9.6c0-48 0-92.8 3.2-140.8 0-3.2 0-9.6 0-16 9.6 3.2 16 6.4 22.4 9.6 3.2 0 9.6 0 9.6 0 0 3.2 0-3.2 0-6.4zM937.6 480c-6.4-3.2-12.8-9.6-22.4-9.6-6.4-3.2-9.6-6.4-9.6-12.8 0-51.2 0-102.4 0-150.4 0-16-6.4-25.6-19.2-32-9.6-3.2-19.2-9.6-28.8-12.8-12.8-3.2-16-3.2-16 9.6 0 51.2 0 99.2 0 150.4 0 3.2 0 6.4 0 12.8-9.6-3.2-16-6.4-22.4-9.6-3.2 0-9.6-3.2-12.8 0s-3.2 9.6 0 12.8c3.2 6.4 6.4 12.8 6.4 16 16 32 28.8 64 44.8 92.8 3.2 3.2 3.2 9.6 6.4 12.8 9.6 12.8 19.2 12.8 28.8 0 16-19.2 32-35.2 48-54.4 6.4-6.4 6.4-16-3.2-25.6z" />
<glyph unicode="&#xe916;" glyph-name="tab-question-and-answer" d="M512-67.2c-80 3.2-156.8 22.4-230.4 57.6-6.4 3.2-16 3.2-25.6 3.2-70.4-16-137.6-35.2-208-51.2-35.2-9.6-54.4 9.6-44.8 44.8 16 70.4 35.2 137.6 51.2 208 3.2 6.4 0 16-3.2 25.6-140.8 291.2 16 640 332.8 723.2 284.8 76.8 579.2-112 630.4-400 48-272-118.4-528-384-592-38.4-9.6-80-12.8-118.4-19.2zM694.4 310.4c86.4 118.4 48 265.6-48 339.2-96 70.4-230.4 60.8-313.6-22.4s-92.8-217.6-22.4-313.6c73.6-96 220.8-134.4 339.2-48 16-19.2 35.2-35.2 51.2-51.2 16 16 32 32 48 48-19.2 12.8-35.2 32-54.4 48zM646.4 358.4c-16 16-32 32-48 51.2-16-16-32-32-48-48 16-12.8 32-32 48-48-64-51.2-166.4-38.4-224 22.4-64 67.2-64 172.8 0 240 60.8 64 166.4 70.4 233.6 16 73.6-57.6 89.6-160 38.4-233.6z" />
<glyph unicode="&#xe917;" glyph-name="tab-refunds" d="M512 960c-281.6 0-512-230.4-512-512s230.4-512 512-512c281.6 0 512 230.4 512 512s-230.4 512-512 512zM790.4 400c-35.2-204.8-272-304-444.8-182.4-9.6 6.4-16 12.8-25.6 19.2-25.6 19.2-32 44.8-12.8 70.4 12.8 19.2 44.8 25.6 67.2 6.4 28.8-22.4 60.8-41.6 96-48 83.2-16 144 22.4 195.2 83.2 3.2 6.4 6.4 9.6 9.6 16 60.8 105.6-6.4 246.4-131.2 272-57.6 9.6-108.8 0-156.8-38.4 9.6-9.6 19.2-3.2 28.8-6.4 25.6-3.2 41.6-19.2 44.8-44.8 0-25.6-12.8-44.8-38.4-48-48-3.2-92.8-6.4-140.8 0-32 3.2-48 28.8-57.6 57.6 0 41.6 0 83.2 0 124.8 0 28.8 16 48 41.6 51.2 22.4 3.2 48-12.8 51.2-38.4 3.2-28.8 12.8-19.2 28.8-9.6 137.6 92.8 323.2 51.2 409.6-92.8 9.6-16 16-35.2 25.6-54.4 9.6-48 19.2-92.8 9.6-137.6z" />
<glyph unicode="&#xe918;" glyph-name="tab-registration-form" d="M819.2 227.2c0-6.4 0-9.6 0-12.8 0-64 0-124.8 0-188.8 0-54.4-35.2-89.6-89.6-89.6-211.2 0-425.6 0-636.8 0-57.6 0-92.8 35.2-92.8 89.6 0 204.8 0 409.6 0 614.4 0 3.2 0 6.4 0 12.8 3.2 0 6.4 0 12.8 0 67.2 0 137.6 0 204.8 0 54.4 0 89.6 35.2 89.6 89.6 0 67.2 0 134.4 0 204.8 0 3.2 0 6.4 0 12.8 3.2 0 9.6 0 12.8 0 137.6 0 272 0 409.6 0 54.4 0 89.6-35.2 92.8-92.8 0-99.2 0-198.4 0-300.8 0-6.4-3.2-12.8-6.4-19.2-73.6-73.6-147.2-147.2-220.8-220.8-6.4-6.4-12.8-12.8-16-22.4-22.4-44.8-44.8-89.6-67.2-134.4-22.4-48 12.8-102.4 64-99.2 9.6 0 19.2 3.2 28.8 6.4 44.8 22.4 89.6 44.8 134.4 67.2 6.4 3.2 12.8 9.6 19.2 16 19.2 19.2 38.4 38.4 57.6 57.6-3.2 6.4 0 6.4 3.2 9.6zM528 515.2c-51.2 0-99.2 0-150.4 0-22.4 0-38.4-12.8-38.4-35.2 0-19.2 16-35.2 38.4-35.2 99.2 0 198.4 0 300.8 0 22.4 0 38.4 12.8 38.4 35.2 0 19.2-16 35.2-38.4 35.2-51.2 0-99.2 0-150.4 0zM169.6 496c-3.2 3.2-6.4 6.4-6.4 9.6-16 16-35.2 16-51.2 3.2-12.8-12.8-12.8-35.2 0-48 9.6-9.6 22.4-22.4 32-32 16-16 35.2-16 51.2 0 22.4 22.4 44.8 44.8 64 64 16 16 16 35.2 0 48-12.8 12.8-35.2 12.8-51.2 0-9.6-16-22.4-28.8-38.4-44.8zM169.6 323.2c-3.2 3.2-3.2 6.4-6.4 9.6-16 16-35.2 16-51.2 3.2-12.8-12.8-12.8-35.2 0-48 9.6-9.6 22.4-22.4 32-32 16-16 35.2-16 51.2 0 22.4 22.4 44.8 44.8 64 64 16 16 16 35.2 0 48-9.6 16-32 16-44.8 0-16-12.8-28.8-28.8-44.8-44.8zM169.6 153.6c-3.2 3.2-6.4 6.4-9.6 9.6-12.8 12.8-35.2 16-48 0-12.8-12.8-12.8-35.2 0-48 9.6-9.6 19.2-19.2 28.8-28.8 19.2-19.2 38.4-19.2 54.4 0 22.4 19.2 41.6 41.6 64 64 16 16 16 38.4 3.2 51.2s-35.2 12.8-51.2-3.2c-12.8-16-25.6-28.8-41.6-44.8zM425.6 278.4c16 0 32 0 51.2 0s35.2 16 35.2 35.2c0 19.2-16 35.2-35.2 35.2-32 0-67.2 0-99.2 0-19.2 0-35.2-16-35.2-35.2s16-35.2 35.2-35.2c16 0 32 0 48 0zM409.6 105.6c12.8 0 22.4 0 35.2 0 19.2 0 35.2 16 35.2 35.2s-16 32-35.2 35.2c-22.4 0-44.8 0-67.2 0-19.2 0-35.2-16-35.2-35.2s16-35.2 35.2-35.2c9.6 0 22.4 0 32 0zM848 489.6c22.4-22.4 44.8-44.8 67.2-67.2-3.2-3.2-3.2-6.4-6.4-6.4-67.2-67.2-134.4-134.4-198.4-198.4-3.2-3.2-6.4-6.4-9.6-9.6-41.6-22.4-83.2-41.6-124.8-64 0 0-3.2 0-6.4-3.2 0 3.2 3.2 6.4 3.2 9.6 19.2 41.6 38.4 80 60.8 118.4 3.2 3.2 3.2 6.4 6.4 9.6 67.2 67.2 137.6 137.6 204.8 204.8 0 6.4 3.2 6.4 3.2 6.4zM22.4 720c73.6 73.6 144 144 217.6 217.6 0-3.2 0-6.4 0-9.6 0-60.8 0-121.6 0-182.4 0-19.2-6.4-25.6-25.6-25.6-64 0-128 0-192 0zM966.4 473.6c-22.4 22.4-44.8 44.8-67.2 67.2 16 16 28.8 32 44.8 44.8 19.2 19.2 51.2 16 67.2-3.2s16-48-3.2-67.2c-12.8-12.8-25.6-28.8-41.6-41.6z" />
<glyph unicode="&#xe919;" glyph-name="tab-report-abuse" d="M480 960c19.2 0 41.6 0 60.8 0 16-3.2 35.2-3.2 51.2-6.4 105.6-19.2 198.4-64 275.2-140.8 118.4-118.4 172.8-262.4 150.4-432-16-137.6-83.2-249.6-192-332.8-112-89.6-243.2-124.8-384-105.6-102.4 12.8-188.8 54.4-265.6 121.6-89.6 80-147.2 179.2-169.6 297.6-3.2 16-3.2 35.2-6.4 54.4 0 19.2 0 41.6 0 60.8 3.2 16 3.2 28.8 6.4 44.8s6.4 32 9.6 48c54.4 204.8 217.6 304 217.6 304 57.6 38.4 121.6 64 188.8 76.8 19.2 6.4 38.4 6.4 57.6 9.6zM780.8 208c-3.2 6.4-3.2 12.8-9.6 19.2-19.2 19.2-35.2 41.6-54.4 57.6-89.6 70.4-188.8 89.6-297.6 60.8-70.4-19.2-128-60.8-172.8-118.4-9.6-12.8-6.4-32 6.4-41.6s32-6.4 41.6 6.4c3.2 3.2 6.4 6.4 9.6 9.6 86.4 105.6 246.4 128 358.4 51.2 25.6-16 44.8-38.4 64-60.8 9.6-12.8 22.4-16 35.2-9.6 9.6 0 19.2 12.8 19.2 25.6zM419.2 620.8c0 22.4-9.6 35.2-28.8 35.2s-28.8-12.8-32-35.2c-3.2-48-38.4-83.2-89.6-86.4-19.2 0-32-12.8-32-28.8s12.8-28.8 32-28.8c83.2 3.2 150.4 67.2 150.4 144zM745.6 476.8c19.2 0 35.2 9.6 35.2 28.8s-12.8 28.8-32 32c-48 3.2-86.4 38.4-86.4 89.6 0 19.2-12.8 32-32 32-16 0-28.8-12.8-28.8-32 0-80 64-147.2 144-150.4z" />
<glyph unicode="&#xe91a;" glyph-name="tab-reviews-and-rating" d="M512-64c-281.6 0-512 230.4-512 512s230.4 512 512 512c281.6 0 512-230.4 512-512s-230.4-512-512-512zM185.6 448c6.4-128 60.8-224 169.6-284.8 115.2-64 233.6-57.6 342.4 19.2 92.8 64 137.6 153.6 140.8 265.6-32 0-60.8 0-92.8 0-6.4-150.4-124.8-227.2-217.6-230.4-54.4-3.2-102.4 9.6-147.2 41.6-64 44.8-99.2 112-102.4 192-6.4 0-12.8 0-19.2 0-22.4-3.2-48-3.2-73.6-3.2zM419.2 601.6c0 35.2-28.8 64-60.8 64s-60.8-25.6-60.8-60.8c0-35.2 25.6-64 60.8-64 32 0 60.8 28.8 60.8 60.8zM729.6 601.6c0 35.2-28.8 60.8-60.8 60.8s-60.8-28.8-60.8-60.8c0-35.2 28.8-64 60.8-64 32 3.2 60.8 32 60.8 64z" />
<glyph unicode="&#xe91b;" glyph-name="tab-seller-dashbaord" d="M512 25.6c-108.8 0-220.8 0-329.6 0-41.6 0-70.4 16-92.8 48-70.4 108.8-102.4 227.2-83.2 355.2 32 211.2 153.6 352 352 419.2 281.6 92.8 588.8-83.2 652.8-374.4 32-147.2 6.4-281.6-76.8-406.4-22.4-32-48-44.8-86.4-44.8-112 3.2-224 3.2-336 3.2zM512 460.8c-67.2 0-115.2-60.8-99.2-124.8 12.8-54.4 64-86.4 118.4-76.8s89.6 60.8 80 115.2c0 9.6 0 16 6.4 22.4 44.8 41.6 86.4 86.4 131.2 128 12.8 12.8 19.2 25.6 16 44.8-3.2 22.4-12.8 35.2-32 41.6s-38.4 3.2-54.4-12.8c-41.6-41.6-83.2-83.2-124.8-124.8-9.6-12.8-22.4-19.2-38.4-12.8 3.2 0 0 0-3.2 0z" />
<glyph unicode="&#xe91c;" glyph-name="tab-setup-widget" d="M1024 182.4c-3.2-35.2-3.2-70.4-6.4-105.6-9.6-67.2-70.4-131.2-134.4-134.4-67.2-6.4-134.4-6.4-201.6 0-76.8 6.4-134.4 64-144 140.8-6.4 67.2-6.4 134.4 0 198.4 9.6 83.2 73.6 137.6 163.2 144 54.4 3.2 112 3.2 166.4 0 86.4-6.4 150.4-76.8 153.6-163.2 0-28.8 0-54.4 3.2-80-3.2 0 0 0 0 0zM780.8 960c35.2-3.2 73.6 0 108.8-6.4 70.4-12.8 128-73.6 131.2-150.4 3.2-64 3.2-124.8-3.2-188.8-6.4-73.6-70.4-134.4-144-140.8-60.8-3.2-121.6-3.2-182.4 0-80 6.4-140.8 64-150.4 140.8-6.4 67.2-6.4 134.4 0 198.4 9.6 83.2 76.8 140.8 160 144 25.6 0 51.2 0 80 3.2 0-3.2 0 0 0 0zM489.6 713.6c-3.2-32-3.2-64-6.4-99.2-6.4-64-64-140.8-160-144-54.4-3.2-112-3.2-166.4 0-83.2 6.4-144 64-153.6 150.4-3.2 60.8-3.2 124.8 0 185.6 6.4 83.2 67.2 144 150.4 150.4 64 6.4 128 3.2 188.8-3.2 76.8-6.4 137.6-76.8 140.8-150.4 3.2-28.8 0-57.6 0-89.6 6.4 0 6.4 0 6.4 0zM489.6 182.4c0-32 0-67.2-6.4-99.2-9.6-76.8-67.2-134.4-147.2-144-60.8-6.4-121.6-6.4-182.4 0-83.2 6.4-140.8 67.2-150.4 150.4-6.4 60.8-6.4 121.6 0 179.2 6.4 89.6 73.6 147.2 166.4 153.6 57.6 3.2 112 3.2 169.6-3.2 80-6.4 144-73.6 147.2-153.6 3.2-28.8 0-57.6 0-89.6 3.2 6.4 3.2 6.4 3.2 6.4z" />
<glyph unicode="&#xe91d;" glyph-name="tab-social" d="M0 416c0 22.4 0 41.6 0 64 0 6.4 3.2 12.8 3.2 19.2 12.8 108.8 54.4 208 128 291.2 80 86.4 176 144 294.4 163.2 16 3.2 35.2 3.2 54.4 6.4 22.4 0 41.6 0 64 0 16-3.2 35.2-3.2 51.2-6.4 115.2-19.2 214.4-70.4 291.2-156.8 112-121.6 153.6-268.8 131.2-432-19.2-115.2-70.4-214.4-156.8-291.2-118.4-108.8-259.2-153.6-416-131.2-102.4 12.8-192 54.4-268.8 121.6-89.6 80-147.2 179.2-166.4 294.4-6.4 19.2-6.4 38.4-9.6 57.6zM537.6 419.2c0 0 3.2-3.2 3.2-3.2 25.6-28.8 76.8-32 108.8 3.2 16 19.2 35.2 35.2 51.2 51.2 22.4 22.4 48 48 70.4 70.4 25.6 25.6 25.6 67.2 3.2 96-19.2 19.2-35.2 38.4-57.6 57.6-25.6 22.4-67.2 22.4-92.8 0-44.8-44.8-89.6-86.4-131.2-131.2-16-16-19.2-38.4-16-60.8 3.2-16 12.8-28.8 22.4-41.6-3.2-3.2-9.6-9.6-12.8-12.8-3.2 3.2-3.2 3.2-6.4 6.4-28.8 25.6-70.4 25.6-96 0-44.8-41.6-86.4-86.4-131.2-131.2-25.6-25.6-25.6-67.2 0-96 16-19.2 35.2-38.4 54.4-54.4 25.6-25.6 67.2-25.6 92.8 0 44.8 41.6 89.6 86.4 131.2 131.2 16 16 22.4 38.4 16 60.8-3.2 16-12.8 28.8-22.4 44.8 3.2 0 9.6 3.2 12.8 9.6zM448 403.2c-9.6-6.4-16-12.8-25.6-19.2 12.8-12.8 25.6-25.6 38.4-38.4 6.4 6.4 16 16 22.4 25.6 16-12.8 16-22.4 3.2-35.2-38.4-38.4-80-80-118.4-118.4-12.8-12.8-22.4-12.8-32 0-12.8 12.8-28.8 28.8-41.6 41.6-9.6 9.6-9.6 22.4 0 32 38.4 38.4 80 80 118.4 118.4 12.8 9.6 25.6 9.6 35.2-6.4zM576 457.6c12.8 12.8 25.6 22.4 35.2 35.2-12.8 12.8-25.6 25.6-38.4 38.4-9.6-9.6-22.4-22.4-32-35.2-16 12.8-16 22.4-6.4 35.2 41.6 41.6 80 80 121.6 121.6 9.6 9.6 19.2 9.6 32 0 16-16 28.8-28.8 44.8-44.8 9.6-9.6 9.6-19.2 0-28.8-41.6-41.6-80-80-121.6-121.6-12.8-16-25.6-12.8-35.2 0z" />
<glyph unicode="&#xe91e;" glyph-name="tab-SPMV" d="M0 89.6c0 12.8 0 25.6 0 38.4 3.2 12.8 6.4 28.8 12.8 41.6 19.2 54.4 73.6 105.6 163.2 108.8 124.8 3.2 204.8 137.6 147.2 249.6-32 57.6-83.2 89.6-147.2 92.8-83.2 3.2-147.2 51.2-166.4 128-6.4 6.4-6.4 12.8-9.6 22.4 0 12.8 0 25.6 0 38.4 0 3.2 0 3.2 3.2 6.4 9.6 64 57.6 121.6 124.8 137.6 6.4 3.2 16 3.2 22.4 6.4 12.8 0 25.6 0 38.4 0 19.2-6.4 35.2-6.4 51.2-16 67.2-32 99.2-86.4 102.4-160 3.2-128 140.8-204.8 252.8-144 57.6 32 86.4 83.2 89.6 147.2 3.2 73.6 35.2 128 105.6 160 16 6.4 32 9.6 48 12.8 12.8 0 25.6 0 38.4 0 6.4 0 12.8-3.2 19.2-3.2 76.8-19.2 131.2-92.8 128-179.2-6.4-83.2-70.4-150.4-153.6-160-35.2-3.2-70.4-3.2-105.6-9.6-121.6-22.4-224-80-304-172.8-70.4-80-108.8-176-118.4-281.6-3.2-25.6 0-48-3.2-73.6-9.6-80-76.8-140.8-156.8-147.2s-153.6 48-176 124.8c-3.2 12.8-3.2 22.4-6.4 32zM748.8-44.8c-48 0-99.2 0-147.2 0-57.6-3.2-99.2 41.6-99.2 99.2 3.2 99.2 0 198.4 0 297.6 0 60.8 38.4 96 96 96 99.2 0 201.6 0 300.8 0 48 0 83.2-28.8 92.8-70.4 3.2-9.6 3.2-16 3.2-25.6 0-99.2 0-198.4 0-297.6 0-60.8-38.4-96-99.2-96-48-3.2-99.2-3.2-147.2-3.2z" />
<glyph unicode="&#xe91f;" glyph-name="tab-store" d="M640 524.8c25.6-35.2 54.4-70.4 83.2-105.6 57.6-70.4 144-73.6 201.6-35.2 0 0 0 0 3.2 0-9.6-22.4-22.4-38.4-41.6-48-6.4-3.2-9.6-9.6-9.6-16 0-112 0-227.2 0-339.2 0-32-12.8-44.8-44.8-44.8-211.2 0-422.4 0-633.6 0-32 0-48 12.8-48 48 0 112 0 224 0 336 0 9.6-3.2 16-9.6 22.4-28.8 19.2-44.8 51.2-48 86.4 0 6.4 0 16 3.2 22.4 25.6 89.6 48 179.2 73.6 268.8 6.4 22.4 19.2 32 38.4 32 108.8 0 198.4 0 304 0 6.4-3.2 80-160 128-227.2zM348.8 320c0-64 0-131.2 0-195.2 112 0 224 0 336 0 0 64 0 131.2 0 192-16 3.2-35.2 3.2-48 9.6-16 6.4-28.8 12.8-44.8 22.4-22.4-19.2-44.8-28.8-73.6-28.8s-54.4 9.6-76.8 28.8c-38.4-25.6-51.2-28.8-92.8-28.8zM512 838.4c9.6 9.6 19.2 12.8 32 19.2 6.4 3.2 12.8 0 16-3.2s3.2-3.2 6.4-6.4c0 3.2 0 6.4 0 9.6 0 9.6 0 16 9.6 19.2 22.4 12.8 44.8 25.6 67.2 35.2 9.6 3.2 16 3.2 22.4-3.2 12.8-12.8 22.4-28.8 35.2-41.6 0 0 3.2-3.2 3.2-3.2s0 0 0 3.2c-6.4 16-9.6 35.2-16 51.2-3.2 9.6 0 19.2 9.6 22.4 9.6 6.4 19.2 9.6 28.8 16s16 3.2 22.4-6.4c28.8-54.4 60.8-108.8 89.6-163.2 0 0 0 0 0-3.2-80-41.6-156.8-86.4-240-131.2 0 0 0 3.2 0 6.4-28.8 51.2-57.6 105.6-86.4 156.8 0 6.4 0 9.6-3.2 16 0 3.2 0 3.2 3.2 6.4zM835.2 406.4c-3.2 3.2-6.4 3.2-9.6 6.4-12.8 6.4-19.2 19.2-25.6 32-12.8 41.6-25.6 86.4-41.6 128-3.2 9.6-6.4 16-16 22.4-12.8 6.4-22.4 6.4-35.2 0s-28.8-16-41.6-22.4c-12.8-6.4-19.2-3.2-25.6 6.4-6.4 12.8-16 28.8-22.4 41.6 0 0 0 3.2-3.2 3.2 80 41.6 156.8 86.4 236.8 128 0 0 0 0 0 0 9.6-16 19.2-32 25.6-48 3.2-9.6 0-19.2-6.4-22.4-9.6-9.6-22.4-16-38.4-25.6s-22.4-22.4-19.2-38.4c0-6.4 6.4-12.8 9.6-16 25.6-28.8 48-57.6 73.6-86.4 6.4-9.6 16-19.2 19.2-28.8 9.6-22.4 6.4-41.6-6.4-60.8s-32-25.6-57.6-25.6c0 0-3.2 0-3.2 0-3.2 3.2-6.4 3.2-12.8 6.4zM883.2 457.6c3.2 12.8-3.2 25.6-16 28.8s-25.6-3.2-28.8-16c-3.2-12.8 3.2-25.6 16-28.8 12.8-6.4 25.6 3.2 28.8 16z" />
<glyph unicode="&#xe920;" glyph-name="tab-store-review" d="M1024 448c-3.2-252.8-185.6-467.2-435.2-505.6-102.4-16-201.6 0-297.6 44.8-6.4 3.2-16 3.2-22.4 3.2-76.8-16-150.4-32-227.2-51.2-28.8-6.4-44.8 9.6-38.4 38.4 16 76.8 35.2 153.6 51.2 227.2 0 6.4 0 12.8-3.2 19.2-134.4 284.8 9.6 617.6 310.4 710.4 288 89.6 598.4-96 649.6-393.6 6.4-28.8 9.6-60.8 12.8-92.8zM403.2 672c-6.4 0-12.8 0-22.4-3.2-70.4-12.8-118.4-51.2-140.8-118.4s-6.4-128 41.6-179.2c67.2-70.4 137.6-137.6 208-208 16-16 28.8-16 44.8 0 25.6 25.6 54.4 54.4 80 80 41.6 41.6 83.2 83.2 124.8 121.6 41.6 41.6 60.8 96 51.2 156.8-22.4 128-163.2 188.8-268.8 118.4-6.4-6.4-12.8-3.2-19.2 0-28.8 22.4-60.8 32-99.2 32z" />
<glyph unicode="&#xe921;" glyph-name="vendor-application" d="M825.6-64c-208 0-416 0-624 0 0 0 0 0-3.2 0-51.2 12.8-76.8 44.8-76.8 99.2 0 208 0 416 0 620.8 0 70.4 0 140.8 0 211.2 0 32 12.8 57.6 38.4 73.6 12.8 9.6 25.6 12.8 41.6 19.2 134.4 0 268.8 0 403.2 0 0-67.2 0-134.4 0-204.8 0-57.6 38.4-96 96-96 64 0 128 0 192 0 3.2 0 6.4 0 12.8 0 0-3.2 0-9.6 0-12.8 0-80 0-156.8 0-236.8 0-128 0-256 0-380.8 0-41.6-22.4-73.6-60.8-89.6-9.6 0-16 0-19.2-3.2zM512 537.6c-57.6 0-118.4 0-176 0-12.8 0-25.6-6.4-32-19.2-9.6-19.2 6.4-41.6 28.8-41.6 70.4 0 140.8 0 211.2 0 48 0 96 0 144 0 12.8 0 25.6 6.4 28.8 19.2 9.6 19.2-6.4 41.6-28.8 41.6-57.6 0-115.2 0-176 0zM512 358.4c60.8 0 118.4 0 179.2 0 12.8 0 22.4 3.2 28.8 16 6.4 9.6 6.4 19.2 0 28.8s-16 16-28.8 16c-48 0-99.2 0-147.2 0-70.4 0-137.6 0-208 0-12.8 0-25.6-6.4-28.8-19.2-9.6-19.2 6.4-41.6 28.8-41.6 57.6 0 115.2 0 176 0zM512 236.8c60.8 0 118.4 0 179.2 0 12.8 0 25.6 6.4 28.8 16 9.6 19.2-6.4 41.6-28.8 41.6-57.6 0-115.2 0-172.8 0-60.8 0-121.6 0-182.4 0-12.8 0-22.4-6.4-28.8-16-9.6-19.2 3.2-41.6 28.8-41.6 57.6 0 115.2 0 176 0zM451.2 118.4c38.4 0 76.8 0 118.4 0 19.2 0 32 12.8 32 28.8 0 19.2-12.8 32-32 32-76.8 0-153.6 0-233.6 0-19.2 0-35.2-12.8-35.2-28.8 0-19.2 12.8-28.8 35.2-28.8 38.4-3.2 76.8-3.2 115.2-3.2zM880 720c0 0 0 0 0 0-64 0-128 0-188.8 0-16 0-28.8 12.8-28.8 28.8 0 64 0 124.8 0 188.8 0 0 0 3.2 0 0 73.6-70.4 147.2-144 217.6-217.6z" />
<glyph unicode="&#xe922;" glyph-name="vendor-follower" d="M0 243.2c0 188.8 0 380.8 0 569.6 0 0 0 3.2 0 3.2 6.4 44.8 41.6 76.8 92.8 76.8 278.4 0 556.8 0 835.2 0 16 0 28.8-3.2 44.8-9.6 35.2-19.2 51.2-48 51.2-86.4 0-64 0-128 0-195.2 0-115.2 0-230.4 0-348.8 0-32-9.6-57.6-35.2-76.8-19.2-12.8-38.4-19.2-60.8-19.2-89.6 0-182.4 0-272 0-6.4 0-12.8-3.2-16-6.4-32-44.8-67.2-89.6-99.2-134.4-16-22.4-38.4-22.4-54.4 0-32 44.8-67.2 89.6-99.2 134.4-3.2 6.4-9.6 6.4-16 6.4-92.8 0-182.4 0-275.2 0-32 0-60.8 9.6-76.8 38.4-9.6 16-12.8 32-19.2 48zM412.8 534.4c-3.2-3.2-6.4-3.2-9.6-6.4-73.6-44.8-115.2-108.8-118.4-195.2 0-22.4 9.6-32 32-32 128 0 259.2 0 387.2 0 22.4 0 32 12.8 32 32 0 76.8-32 134.4-89.6 179.2-9.6 9.6-22.4 16-35.2 22.4 67.2 64 60.8 160 3.2 214.4-57.6 57.6-147.2 54.4-204.8 0s-64-150.4 3.2-214.4zM675.2 361.6c-108.8 0-217.6 0-326.4 0 6.4 60.8 67.2 137.6 163.2 137.6 96-3.2 156.8-76.8 163.2-137.6zM601.6 646.4c0-48-41.6-89.6-89.6-89.6s-89.6 41.6-89.6 89.6c0 48 41.6 89.6 89.6 89.6 48-3.2 89.6-41.6 89.6-89.6z" />
<glyph unicode="&#xe923;" glyph-name="vendor-payment" d="M681.6 553.6c-160-73.6-211.2-284.8-92.8-425.6-3.2 0-6.4 0-9.6 0-147.2 0-297.6 0-444.8 0-67.2 0-121.6 44.8-131.2 112 0 6.4 0 16 0 22.4 0 96 0 188.8 0 284.8 0 3.2 0 6.4 0 9.6 227.2-3.2 451.2-3.2 678.4-3.2zM252.8 342.4c-22.4 0-44.8 0-70.4 0-22.4 0-38.4-16-38.4-35.2s16-35.2 38.4-35.2c44.8 0 92.8 0 137.6 0 22.4 0 38.4 16 38.4 35.2s-16 35.2-38.4 35.2c-22.4 0-44.8 0-67.2 0zM0 627.2c3.2 32 0 64 6.4 92.8 12.8 54.4 64 92.8 118.4 96 3.2 0 9.6 0 12.8 0 217.6 0 435.2 0 652.8 0 57.6 0 99.2-25.6 124.8-76.8 6.4-12.8 12.8-25.6 12.8-38.4 0-25.6 0-48 0-73.6-307.2 0-614.4 0-928 0zM572.8 307.2c0 124.8 102.4 227.2 227.2 224 124.8 0 224-102.4 224-227.2s-102.4-224-227.2-224c-124.8 0-224 102.4-224 227.2zM774.4 288c-6.4 6.4-12.8 12.8-19.2 19.2-16 16-38.4 16-51.2 0-12.8-12.8-12.8-35.2 0-51.2 16-16 28.8-32 44.8-44.8 16-16 38.4-16 54.4 3.2 32 38.4 60.8 76.8 89.6 115.2 12.8 16 9.6 38.4-6.4 51.2s-35.2 9.6-51.2-6.4c-9.6-9.6-16-22.4-25.6-32-6.4-22.4-19.2-38.4-35.2-54.4z" />
<glyph unicode="&#xe924;" glyph-name="vendor-personal" d="M531.2 960c25.6-6.4 54.4-9.6 76.8-19.2 92.8-38.4 147.2-105.6 166.4-204.8 19.2-108.8-35.2-220.8-134.4-272-96-51.2-192-44.8-281.6 16-70.4 48-108.8 121.6-112 208-3.2 96 41.6 172.8 121.6 230.4 35.2 25.6 76.8 38.4 118.4 41.6 3.2 0 3.2 0 6.4 0 12.8 0 25.6 0 38.4 0zM528-64c-131.2 0-236.8 35.2-329.6 105.6-54.4 41.6-102.4 89.6-137.6 150.4-6.4 9.6-6.4 19.2-3.2 28.8 44.8 96 121.6 160 227.2 185.6 9.6 3.2 16 3.2 25.6 6.4 16 3.2 28.8 0 41.6-9.6 51.2-38.4 112-54.4 176-51.2 48 3.2 96 12.8 137.6 41.6 28.8 22.4 57.6 19.2 89.6 12.8 89.6-25.6 156.8-76.8 204.8-156.8 19.2-35.2 22.4-35.2 0-67.2-60.8-86.4-128-150.4-214.4-192-80-38.4-153.6-54.4-217.6-54.4z" />
<glyph unicode="&#xe925;" glyph-name="vendor-policy" d="M803.2 521.6c-28.8 3.2-51.2-6.4-76.8-19.2-51.2-28.8-99.2-54.4-150.4-80s-70.4-64-73.6-118.4c-3.2-96 9.6-188.8 54.4-272 0 0 0 0 0-3.2-3.2 0-6.4 0-9.6 0-131.2 0-265.6 0-396.8 0-86.4 0-153.6 67.2-153.6 153.6 0 156.8 0 313.6 0 470.4 0 44.8 16 80 48 112 48 48 99.2 96 147.2 147.2 28.8 28.8 64 44.8 105.6 44.8 118.4 0 240 0 358.4 0 80 0 147.2-67.2 147.2-147.2 0-92.8 0-182.4 0-275.2 3.2-6.4 0-6.4 0-12.8zM348.8 499.2c41.6 0 86.4 0 128 0 25.6 0 44.8 19.2 44.8 44.8s-19.2 44.8-44.8 44.8c-86.4 0-172.8 0-262.4 0-9.6 0-19.2-3.2-25.6-9.6-16-9.6-19.2-28.8-16-48 6.4-19.2 22.4-28.8 41.6-28.8 48-3.2 89.6 0 134.4-3.2zM284.8 297.6c22.4 0 41.6 0 64 0 25.6 0 44.8 19.2 44.8 44.8s-19.2 44.8-48 44.8c-41.6 0-83.2 0-124.8 0-25.6 0-48-19.2-48-44.8s19.2-44.8 44.8-44.8c25.6 0 44.8 0 67.2 0zM1024 252.8c0-80-12.8-144-48-201.6-35.2-54.4-83.2-89.6-144-105.6-3.2 0-9.6 0-16 0-92.8 28.8-150.4 92.8-182.4 182.4-19.2 60.8-25.6 121.6-19.2 185.6 0 12.8 6.4 19.2 16 25.6 54.4 28.8 112 60.8 166.4 89.6 12.8 6.4 22.4 6.4 35.2 0 54.4-32 112-60.8 166.4-89.6 9.6-6.4 16-12.8 19.2-25.6 3.2-25.6 6.4-48 6.4-60.8z" />
<glyph unicode="&#xe926;" glyph-name="vendor-shipping" d="M0 460.8c0 6.4 0 16 0 22.4 0 0 0 3.2 0 3.2 9.6 35.2 32 51.2 70.4 51.2s80 0 118.4 0c3.2 0 6.4 0 9.6 0 0 0-3.2 0-3.2 3.2 16 38.4 28.8 76.8 44.8 115.2 0 0-3.2 0-6.4 0-32 0-64 0-99.2 0-28.8 0-48 12.8-60.8 38.4-16 41.6 16 89.6 64 89.6 73.6 0 144 0 217.6 0 6.4 0 9.6 0 16 3.2 115.2 76.8 243.2 96 374.4 51.2 150.4-51.2 240-160 272-313.6 3.2-16 6.4-35.2 6.4-51.2 0-19.2 0-38.4 0-54.4-3.2-12.8-3.2-25.6-6.4-41.6-32-192-192-336-387.2-345.6-124.8-6.4-230.4 35.2-320 121.6-3.2 6.4-9.6 6.4-16 6.4-41.6 0-83.2 0-121.6 0-41.6 0-70.4 44.8-57.6 86.4 9.6 25.6 32 41.6 57.6 41.6 16 0 32 0 51.2 0-3.2 6.4-3.2 9.6-3.2 12.8-12.8 32-19.2 64-22.4 96 0 9.6-3.2 9.6-12.8 9.6-38.4 0-76.8 0-115.2 0-35.2 0-57.6 19.2-67.2 51.2-3.2 0-3.2 3.2-3.2 3.2zM608 764.8c-176 0-316.8-140.8-316.8-316.8s140.8-316.8 316.8-316.8c176 0 316.8 140.8 316.8 316.8 0 172.8-140.8 316.8-316.8 316.8zM352 448c0 140.8 115.2 256 259.2 256s256-115.2 256-259.2c0-140.8-115.2-256-259.2-256-144 3.2-259.2 118.4-256 259.2zM729.6 476.8c-32 0-60.8 0-89.6 0 0 51.2 0 99.2 0 150.4-19.2 0-38.4 0-57.6 0 0-70.4 0-140.8 0-208 51.2 0 99.2 0 150.4 0-3.2 19.2-3.2 38.4-3.2 57.6z" />
<glyph unicode="&#xe927;" glyph-name="vendor-social" d="M1024 483.2c0-22.4 0-44.8 0-67.2 0-3.2-3.2-6.4-3.2-9.6-9.6-89.6-38.4-169.6-89.6-246.4-3.2-6.4-3.2-9.6 0-19.2 19.2-38.4 35.2-80 54.4-121.6 12.8-28.8 25.6-57.6 38.4-86.4-6.4 3.2-9.6 3.2-16 6.4-64 28.8-128 57.6-192 86.4-6.4 3.2-12.8 3.2-19.2 0-51.2-35.2-108.8-60.8-169.6-76.8-25.6-6.4-54.4-9.6-83.2-16-22.4 0-44.8 0-67.2 0-3.2 0-6.4 3.2-6.4 3.2-86.4 6.4-163.2 35.2-236.8 83.2-176 115.2-268.8 332.8-220.8 537.6 60.8 268.8 313.6 441.6 585.6 396.8 198.4-32 368-192 412.8-390.4 6.4-25.6 9.6-54.4 12.8-80zM608 278.4c-6.4-3.2-9.6-3.2-12.8-6.4-128-60.8-278.4 32-281.6 172.8 0 124.8 108.8 217.6 230.4 198.4 92.8-16 163.2-99.2 163.2-192 0-22.4-16-41.6-38.4-41.6s-38.4 16-41.6 38.4c0 6.4 0 12.8-3.2 19.2-9.6 51.2-51.2 89.6-102.4 96s-99.2-25.6-121.6-73.6c-19.2-48-6.4-105.6 35.2-137.6s99.2-35.2 140.8-3.2c9.6 6.4 12.8 6.4 22.4 0 51.2-38.4 124.8-25.6 163.2 25.6 22.4 32 25.6 67.2 22.4 102.4-16 153.6-166.4 265.6-316.8 236.8-147.2-19.2-246.4-150.4-230.4-297.6 22.4-192 236.8-300.8 403.2-208 3.2 0 3.2 3.2 6.4 3.2-12.8 22.4-25.6 44.8-38.4 67.2zM470.4 451.2c0 22.4 19.2 38.4 38.4 38.4 22.4 0 38.4-19.2 38.4-38.4 0-22.4-19.2-38.4-41.6-38.4-16-3.2-35.2 16-35.2 38.4z" />
<glyph unicode="&#xe928;" glyph-name="vendor-store" d="M92.8 576c-19.2 0-35.2 0-51.2 0-32 0-48 28.8-32 57.6 48 83.2 96 166.4 144 249.6 9.6 12.8 19.2 22.4 35.2 22.4 217.6 0 435.2 0 652.8 0 16 0 28.8-6.4 35.2-19.2 48-83.2 96-169.6 144-252.8 16-25.6-3.2-54.4-32-57.6-16 0-35.2 0-54.4 0 0-6.4 0-9.6 0-12.8 0-153.6 0-304 0-457.6 0-54.4-32-96-83.2-108.8-9.6-3.2-22.4-3.2-32-3.2-204.8 0-409.6 0-614.4 0-64 0-112 48-112 112 0 153.6 0 304 0 457.6 0 3.2 0 6.4 0 12.8zM512 192c60.8 0 118.4 0 179.2 0 25.6 0 41.6 16 41.6 41.6 0 51.2 0 102.4 0 156.8 0 25.6-16 41.6-41.6 41.6-118.4 0-236.8 0-355.2 0-28.8 0-41.6-12.8-41.6-41.6 0-51.2 0-102.4 0-153.6 0-28.8 12.8-41.6 41.6-41.6 57.6-3.2 115.2-3.2 176-3.2z" />
<glyph unicode="&#xe929;" glyph-name="tab-vendor" d="M537.6 960c22.4-3.2 48-6.4 70.4-12.8 64-16 105.6-57.6 124.8-121.6 19.2-73.6 25.6-150.4 9.6-227.2-22.4-105.6-86.4-179.2-192-214.4-38.4-12.8-73.6-3.2-108.8 12.8-86.4 41.6-137.6 108.8-160 198.4-9.6 48-9.6 92.8-3.2 137.6 3.2 32 6.4 60.8 16 92.8 16 64 60.8 105.6 124.8 121.6 22.4 6.4 44.8 6.4 67.2 12.8 16 0 35.2 0 51.2 0zM713.6 726.4c-6.4 0-9.6 0-12.8-3.2-44.8-9.6-89.6-12.8-137.6-6.4s-92.8 22.4-121.6 67.2c0 3.2-3.2 3.2-6.4 3.2-35.2 0-67.2-6.4-92.8-28.8-19.2-16-35.2-35.2-32-64 0-12.8 0-22.4 0-35.2 6.4-96 44.8-172.8 131.2-220.8 35.2-19.2 73.6-32 115.2-12.8 83.2 35.2 134.4 99.2 153.6 185.6 6.4 38.4 3.2 76.8 3.2 115.2zM512 275.2c9.6 22.4 19.2 48 25.6 70.4 3.2 12.8 12.8 19.2 25.6 22.4 25.6 6.4 51.2 19.2 73.6 35.2 9.6 6.4 19.2 9.6 28.8 3.2 60.8-35.2 121.6-67.2 179.2-99.2 32-16 51.2-41.6 64-73.6 22.4-44.8 32-96 38.4-144 0-6.4-3.2-16-9.6-25.6-19.2-25.6-44.8-44.8-73.6-60.8-51.2-28.8-108.8-41.6-166.4-51.2-92.8-16-188.8-16-281.6-9.6-57.6 3.2-115.2 9.6-172.8 25.6-51.2 16-102.4 35.2-144 73.6-6.4 3.2-9.6 9.6-12.8 12.8-12.8 16-19.2 28.8-12.8 51.2 9.6 48 22.4 96 44.8 140.8 12.8 25.6 28.8 44.8 54.4 57.6 64 35.2 124.8 70.4 185.6 102.4 9.6 3.2 16 3.2 22.4-3.2 25.6-19.2 51.2-32 83.2-38.4 9.6-3.2 12.8-6.4 16-16 9.6-25.6 22.4-51.2 32-73.6 0 0 0 0 0 0zM774.4 172.8c-51.2 0-99.2 0-150.4 0 0-12.8 0-25.6 0-38.4 25.6-6.4 48-16 73.6-22.4 3.2 0 3.2 0 6.4 0 22.4 6.4 44.8 12.8 67.2 19.2 3.2 0 6.4 3.2 6.4 6.4-3.2 9.6-3.2 22.4-3.2 35.2z" />
<glyph unicode="&#xe92a;" glyph-name="tab-overview" d="M835.2 524.8c-176 54.4-336-41.6-393.6-179.2-64-153.6 0-336 160-409.6-3.2 0-6.4 0-9.6 0-118.4 0-236.8 0-355.2 0s-214.4 83.2-233.6 198.4c-3.2 12.8-3.2 25.6-3.2 38.4 0 182.4 0 368 0 550.4 0 115.2 76.8 208 185.6 230.4 16 3.2 32 6.4 48 6.4 121.6 0 246.4 0 368 0 115.2 0 208-76.8 230.4-192 3.2-12.8 3.2-28.8 3.2-41.6 0-64 0-131.2 0-195.2 3.2 0 3.2-3.2 0-6.4zM556.8 646.4c0-3.2 3.2-3.2 3.2-6.4 6.4-25.6 25.6-41.6 51.2-38.4s41.6 22.4 41.6 48c0 35.2 0 70.4 0 102.4 0 28.8-19.2 48-48 48-38.4 0-73.6 0-112 0-22.4 0-41.6-19.2-44.8-41.6s9.6-41.6 32-51.2c3.2 0 6.4-3.2 9.6-3.2-16-16-32-32-51.2-44.8-12.8 12.8-25.6 25.6-38.4 35.2-22.4 19.2-48 19.2-70.4 0-41.6-38.4-83.2-80-128-118.4-22.4-19.2-22.4-48-3.2-67.2s44.8-19.2 67.2 0c28.8 25.6 57.6 54.4 86.4 80 3.2 3.2 9.6 6.4 12.8 12.8 12.8-12.8 25.6-25.6 38.4-38.4 12.8-9.6 25.6-16 38.4-12.8 9.6 3.2 22.4 9.6 28.8 16 32 28.8 60.8 54.4 86.4 80zM508.8 224c0 118.4 89.6 214.4 211.2 224 115.2 9.6 214.4-73.6 233.6-185.6 9.6-54.4 0-105.6-28.8-153.6-3.2-6.4-3.2-9.6 3.2-16 25.6-25.6 54.4-54.4 80-80 12.8-12.8 19.2-28.8 12.8-48s-19.2-28.8-38.4-32c-16-3.2-28.8 3.2-41.6 16-25.6 25.6-51.2 51.2-76.8 80-6.4 6.4-9.6 6.4-16 3.2-137.6-80-310.4 0-336 160 0 9.6 0 22.4-3.2 32z" />
<glyph unicode="&#xe92b;" glyph-name="tab-product-02" d="M697.6 912c22.4 0 44.8 0 67.2 0 38.4 0 73.6 3.2 112-3.2 83.2-16 147.2-89.6 147.2-179.2 0-188.8 0-377.6 0-566.4 0-102.4-83.2-182.4-185.6-182.4-217.6 0-435.2 0-652.8 0-105.6 0-185.6 83.2-185.6 185.6 0 185.6 0 371.2 0 553.6 0 102.4 76.8 182.4 179.2 188.8 44.8 3.2 92.8 0 137.6 0 3.2 0 3.2 0 6.4 0 0-6.4 0-9.6 0-16 0-99.2 0-201.6 0-300.8 0-41.6 28.8-64 67.2-51.2 35.2 9.6 67.2 22.4 102.4 32 12.8 3.2 22.4 3.2 32 0 32-12.8 67.2-22.4 99.2-32 41.6-12.8 70.4 6.4 70.4 51.2 0 99.2 0 198.4 0 297.6 3.2 9.6 3.2 16 3.2 22.4zM604.8 652.8c-22.4 6.4-48 16-67.2 22.4-16 6.4-28.8 6.4-44.8 0-22.4-9.6-44.8-16-70.4-22.4 0 86.4 0 172.8 0 259.2 60.8 0 121.6 0 182.4 0 0-86.4 0-172.8 0-259.2z" />
<glyph unicode="&#xe92c;" glyph-name="tab-transaction-history" d="M512 940.8c128 0 256 0 384 0 76.8 0 128-48 128-128 0-246.4 0-489.6 0-736 0-57.6-35.2-105.6-89.6-118.4-9.6-3.2-22.4-3.2-35.2-3.2-259.2 0-521.6 0-780.8 0-70.4 0-121.6 51.2-121.6 121.6 0 246.4 0 492.8 0 739.2 0 70.4 51.2 121.6 121.6 121.6 134.4 3.2 262.4 3.2 393.6 3.2zM710.4 291.2c-3.2-3.2-6.4-6.4-9.6-9.6-16-16-28.8-28.8-44.8-44.8s-12.8-38.4 0-54.4c16-16 38.4-16 54.4-3.2 41.6 41.6 83.2 83.2 124.8 124.8 12.8 12.8 12.8 25.6 6.4 41.6s-19.2 22.4-35.2 22.4c-3.2 0-9.6 0-12.8 0-166.4 0-336 0-502.4 0-6.4 0-12.8 0-19.2 0-19.2 0-35.2-16-38.4-35.2s9.6-38.4 28.8-41.6c6.4 0 12.8 0 16 0 137.6 0 275.2 0 412.8 0 9.6 0 12.8 0 19.2 0zM336 585.6c0 0-3.2 3.2 0 0 12.8 19.2 28.8 32 44.8 48s16 38.4 0 54.4c-16 16-38.4 16-54.4 3.2-41.6-38.4-80-80-118.4-118.4-22.4-22.4-9.6-57.6 22.4-64 3.2 0 9.6 0 12.8 0 172.8 0 348.8 0 521.6 0 3.2 0 6.4 0 9.6 0 16 3.2 28.8 9.6 32 25.6 9.6 25.6-9.6 51.2-41.6 51.2-137.6 0-278.4 0-416 0-6.4 0-9.6 0-12.8 0z" />
<glyph unicode="&#xe92d;" glyph-name="tab-paypal-payout" d="M384 819.2c19.2-3.2 35.2-3.2 54.4-6.4 35.2-6.4 67.2-19.2 92.8-44.8 25.6-28.8 38.4-64 38.4-102.4-3.2-48-12.8-96-38.4-140.8-22.4-41.6-57.6-73.6-102.4-92.8-41.6-19.2-89.6-22.4-134.4-22.4-19.2 0-38.4 0-60.8 0s-35.2-9.6-38.4-32c-9.6-70.4-22.4-137.6-32-208 0-3.2 0-3.2 0-6.4-3.2 0-6.4 0-6.4 0-44.8 0-86.4 0-131.2 0-19.2 0-25.6 9.6-22.4 25.6 9.6 57.6 19.2 112 25.6 169.6 9.6 67.2 22.4 137.6 32 204.8s22.4 137.6 32 204.8c0 3.2 3.2 9.6 3.2 12.8 0 19.2 9.6 32 28.8 38.4 83.2 0 172.8 0 259.2 0zM192 80c16 96 28.8 192 44.8 288 3.2 0 6.4 0 9.6 0 35.2 0 73.6 0 108.8 3.2 60.8 6.4 115.2 28.8 160 70.4 25.6 25.6 48 54.4 60.8 86.4 9.6 22.4 16 44.8 22.4 64 0 3.2 0 3.2 3.2 6.4 12.8-16 19.2-28.8 22.4-48 6.4-32 3.2-67.2-3.2-99.2-9.6-35.2-22.4-70.4-48-99.2-22.4-25.6-51.2-44.8-86.4-57.6s-70.4-12.8-108.8-12.8c-6.4 0-9.6 0-16 0-12.8-3.2-19.2-12.8-19.2-22.4-6.4-38.4-12.8-76.8-19.2-115.2-3.2-12.8-3.2-28.8-6.4-41.6s-12.8-22.4-25.6-22.4c-32 0-67.2 0-99.2 0zM432 256c28.8 0 44.8-16 44.8-38.4 0-25.6-16-38.4-44.8-38.4h-32v-54.4c0-3.2 0-3.2-3.2-3.2h-22.4c-3.2 0-3.2 0-3.2 3.2v131.2c0 3.2 0 3.2 3.2 3.2h57.6zM432 198.4c12.8 0 19.2 6.4 19.2 16s-6.4 16-19.2 16h-28.8v-35.2h28.8zM556.8 214.4c0 0 0 3.2 0 0l22.4 3.2c3.2 0 3.2 0 3.2-3.2v-89.6c0-3.2 0-3.2-3.2-3.2h-22.4c-3.2 0-3.2 0-3.2 3.2v6.4c-6.4-6.4-16-9.6-28.8-9.6s-25.6 3.2-35.2 12.8c-9.6 9.6-12.8 22.4-12.8 35.2 0 16 3.2 28.8 12.8 35.2 9.6 9.6 19.2 12.8 35.2 12.8 12.8 0 22.4-3.2 28.8-9.6v6.4zM556.8 156.8v28.8c-3.2 6.4-12.8 12.8-22.4 12.8-16 0-25.6-9.6-25.6-25.6s9.6-25.6 25.6-25.6c9.6-3.2 19.2 0 22.4 9.6zM598.4 214.4c-3.2 0 0 3.2 0 0l25.6 3.2c0 0 3.2 0 3.2-3.2l28.8-54.4 28.8 54.4c0 0 3.2 3.2 3.2 3.2h22.4c3.2 0 3.2 0 3.2-3.2l-70.4-134.4c0 0-3.2-3.2-3.2-3.2h-22.4c-3.2 0-3.2 0-3.2 3.2l25.6 51.2-41.6 83.2zM713.6 169.6c0 16 6.4 25.6 12.8 35.2 9.6 9.6 22.4 12.8 38.4 12.8s28.8-3.2 38.4-12.8c9.6-9.6 12.8-22.4 12.8-35.2 0-16-6.4-25.6-12.8-35.2-9.6-9.6-22.4-12.8-38.4-12.8s-28.8 3.2-38.4 12.8c-9.6 9.6-12.8 19.2-12.8 35.2zM764.8 144c16 0 25.6 12.8 25.6 25.6 0 16-9.6 25.6-25.6 25.6s-25.6-9.6-25.6-25.6c0-16 9.6-25.6 25.6-25.6zM899.2 214.4c0 0 0 3.2 0 0l22.4 3.2c3.2 0 3.2 0 3.2-3.2v-89.6c0-3.2 0-3.2-3.2-3.2h-22.4c-3.2 0-3.2 0-3.2 3.2v3.2c-6.4-6.4-16-9.6-28.8-9.6-22.4 0-35.2 16-35.2 41.6v54.4c0 3.2 0 3.2 3.2 3.2h22.4c3.2 0 3.2 0 3.2-3.2v-51.2c0-12.8 6.4-22.4 19.2-22.4 9.6 0 16 3.2 19.2 9.6v64zM1024 198.4c0-3.2 0-3.2 0 0l-32-3.2v-35.2c0-12.8 6.4-16 16-16 3.2 0 6.4 0 9.6 0s3.2 0 3.2-3.2v-16c0 0 0-3.2-3.2-3.2-6.4 0-12.8-3.2-19.2-3.2-22.4 0-35.2 12.8-35.2 35.2v38.4h-22.4c-3.2 0-3.2 0-3.2 3.2v16c0 3.2 0 3.2 3.2 3.2h22.4v38.4c0 3.2 0 3.2 3.2 3.2h22.4c3.2 0 3.2 0 3.2-3.2v-38.4h28.8c3.2 0 3.2 0 3.2-3.2v-12.8z" />
<glyph unicode="&#xe92e;" glyph-name="tab-paypal-masspay" d="M364.8 796.8c19.2 0 35.2-3.2 51.2-6.4 32-6.4 64-19.2 89.6-44.8s35.2-60.8 35.2-96c-3.2-48-12.8-92.8-35.2-131.2-22.4-41.6-54.4-70.4-99.2-86.4-41.6-16-83.2-22.4-128-22.4-19.2 0-38.4 0-57.6 0-22.4 0-32-9.6-35.2-32-9.6-64-22.4-131.2-32-195.2 0-3.2 0-3.2 0-6.4-3.2 0-3.2 0-6.4 0-41.6 0-83.2 0-124.8 0-16 0-25.6 9.6-22.4 25.6 9.6 54.4 16 105.6 25.6 160 9.6 64 19.2 128 32 195.2 9.6 64 19.2 128 32 192 0 3.2 3.2 9.6 3.2 12.8 0 16 9.6 32 25.6 38.4 80-3.2 163.2-3.2 246.4-3.2zM182.4 99.2c16 89.6 28.8 182.4 41.6 272 3.2 0 6.4 0 9.6 0 35.2 0 70.4 0 105.6 3.2 57.6 6.4 108.8 25.6 153.6 67.2 25.6 22.4 44.8 51.2 57.6 83.2 9.6 19.2 12.8 41.6 22.4 60.8 0 3.2 0 3.2 3.2 6.4 9.6-12.8 16-28.8 22.4-44.8 6.4-32 3.2-64-3.2-92.8-9.6-35.2-22.4-67.2-44.8-96-22.4-25.6-51.2-41.6-83.2-54.4-32-9.6-67.2-12.8-102.4-12.8-6.4 0-9.6 0-16 0-12.8-3.2-16-12.8-19.2-22.4-9.6-38.4-16-73.6-22.4-108.8-3.2-12.8-3.2-25.6-6.4-38.4s-12.8-19.2-25.6-19.2c-28.8-3.2-60.8-3.2-92.8-3.2zM480 169.6c0-3.2 0-3.2 0 0l-22.4-3.2c0 0-3.2 0-3.2 3.2l-16 70.4-22.4-67.2c0 0 0-3.2-3.2-3.2h-12.8c0 0-3.2 0-3.2 3.2l-22.4 67.2-19.2-70.4c0 0 0-3.2-3.2-3.2h-19.2c0 0-3.2 0-3.2 3.2l25.6 105.6c0 0 0 3.2 3.2 3.2h19.2c0 0 3.2 0 3.2-3.2l25.6-73.6 25.6 73.6c0 0 0 3.2 3.2 3.2h16c0 0 3.2 0 3.2-3.2l25.6-105.6zM553.6 243.2c0 0 0 0 0 0l19.2 3.2c0 0 3.2 0 3.2-3.2v-73.6c0 0 0-3.2-3.2-3.2h-16c0 0-3.2 0-3.2 3.2v3.2c-6.4-6.4-12.8-9.6-22.4-9.6-12.8 0-19.2 3.2-28.8 9.6-6.4 6.4-9.6 16-9.6 28.8s3.2 22.4 9.6 28.8c6.4 6.4 16 12.8 28.8 12.8 9.6 0 19.2-3.2 22.4-9.6v9.6zM553.6 195.2v22.4c-3.2 6.4-9.6 9.6-19.2 9.6-12.8 0-22.4-9.6-22.4-22.4s9.6-22.4 22.4-22.4c6.4 3.2 16 6.4 19.2 12.8zM588.8 172.8c0 0 0 3.2 0 0l3.2 12.8c0 0 0 3.2 3.2 0 6.4-3.2 16-6.4 22.4-6.4 9.6 0 12.8 3.2 12.8 6.4s0 3.2-3.2 3.2c-3.2 3.2-3.2 3.2-6.4 3.2l-12.8 3.2c-12.8 3.2-22.4 9.6-22.4 22.4 0 16 12.8 25.6 32 25.6 9.6 0 19.2-3.2 25.6-6.4 0 0 0 0 0-3.2l-3.2-12.8c0 0 0 0-3.2 0-6.4 3.2-12.8 6.4-19.2 6.4s-12.8-3.2-12.8-6.4c0-3.2 3.2-6.4 9.6-6.4l12.8-3.2c12.8-3.2 19.2-9.6 19.2-22.4 0-16-12.8-25.6-32-25.6-6.4 3.2-16 3.2-25.6 9.6zM665.6 172.8c0 0-3.2 3.2 0 0l3.2 12.8c0 0 0 3.2 3.2 0 6.4-3.2 16-6.4 22.4-6.4 9.6 0 12.8 3.2 12.8 6.4s0 3.2-3.2 3.2c-3.2 3.2-3.2 3.2-6.4 3.2l-12.8 3.2c-12.8 3.2-22.4 9.6-22.4 22.4 0 16 12.8 25.6 32 25.6 9.6 0 19.2-3.2 25.6-6.4 0 0 0 0 0-3.2l-3.2-12.8c0 0 0 0-3.2 0-6.4 3.2-12.8 6.4-19.2 6.4s-12.8-3.2-12.8-6.4c0-3.2 3.2-6.4 9.6-6.4l12.8-3.2c12.8-3.2 19.2-9.6 19.2-22.4 0-16-12.8-25.6-32-25.6-9.6 3.2-19.2 3.2-25.6 9.6zM816 233.6c6.4-6.4 9.6-16 9.6-28.8s-3.2-22.4-9.6-28.8c-6.4-6.4-16-9.6-28.8-9.6-9.6 0-19.2 3.2-25.6 9.6v-41.6c0 0 0-3.2-3.2-3.2h-16c0 0-3.2 0-3.2 3.2v108.8c0 0 0 3.2 3.2 3.2h16c0 0 3.2 0 3.2-3.2v-3.2c6.4 6.4 12.8 9.6 22.4 9.6 16-3.2 25.6-6.4 32-16zM806.4 204.8c0 12.8-9.6 22.4-22.4 22.4-9.6 0-16-3.2-19.2-9.6v-22.4c3.2-6.4 9.6-9.6 19.2-9.6 12.8 0 22.4 6.4 22.4 19.2zM899.2 243.2c0 0 0 0 0 0l19.2 3.2c0 0 3.2 0 3.2-3.2v-73.6c0 0 0-3.2-3.2-3.2h-16c0 0-3.2 0-3.2 3.2v3.2c-6.4-6.4-12.8-9.6-22.4-9.6-12.8 0-19.2 3.2-28.8 9.6-6.4 6.4-9.6 16-9.6 28.8s3.2 22.4 9.6 28.8c6.4 6.4 16 12.8 28.8 12.8 9.6 0 19.2-3.2 22.4-9.6v9.6zM899.2 195.2v22.4c-3.2 6.4-9.6 9.6-19.2 9.6-12.8 0-22.4-9.6-22.4-22.4s9.6-22.4 22.4-22.4c9.6 3.2 16 6.4 19.2 12.8zM931.2 240c0 3.2 0 3.2 0 0l19.2 3.2c0 0 3.2 0 3.2 0l22.4-44.8 22.4 44.8c0 0 0 0 3.2 0h19.2c3.2 0 3.2 0 0-3.2l-57.6-108.8c0 0 0 0-3.2 0h-19.2c-3.2 0-3.2 0 0 3.2l22.4 41.6-32 64z" />
<glyph unicode="&#xe92f;" glyph-name="tab-stripe-connect" d="M883.2 537.6h-118.4c3.2-25.6 22.4-38.4 44.8-38.4s41.6 3.2 60.8 16v-51.2c-19.2-12.8-41.6-19.2-67.2-16-57.6 0-99.2 38.4-99.2 112 3.2 64 38.4 112 96 112s89.6-51.2 89.6-112c-6.4-6.4-6.4-19.2-6.4-22.4zM796.8 624c-16 0-32-12.8-32-38.4h60.8c0 25.6-16 38.4-28.8 38.4zM604.8 448c-22.4 0-35.2 6.4-41.6 16v-70.4l-60.8-9.6v284.8h54.4v-16c16 12.8 32 19.2 51.2 19.2 41.6 0 86.4-38.4 86.4-108.8-3.2-80-44.8-115.2-89.6-115.2zM592 617.6c-16 0-22.4-3.2-32-12.8v-89.6c6.4-3.2 16-9.6 25.6-9.6 22.4 0 38.4 22.4 38.4 57.6 6.4 28.8-9.6 54.4-32 54.4zM416 668.8h64v-211.2h-64c0-6.4 0 211.2 0 211.2zM416 739.2l64 9.6v-51.2l-64-9.6v51.2zM355.2 598.4v-147.2h-60.8v217.6h54.4v-19.2c16 25.6 44.8 19.2 54.4 19.2v-57.6c-9.6 3.2-32 6.4-48-12.8zM227.2 531.2c0-35.2 38.4-22.4 44.8-22.4v-51.2c-6.4-6.4-22.4-9.6-41.6-9.6-35.2 0-60.8 25.6-60.8 57.6v198.4l57.6 12.8v-54.4h44.8v-54.4h-44.8v-76.8zM153.6 518.4c0-41.6-35.2-70.4-86.4-70.4-22.4 0-44.8 3.2-64 16v57.6c19.2-9.6 48-19.2 67.2-19.2 16 0 22.4 3.2 22.4 16 0 32-92.8 19.2-92.8 86.4 0 41.6 35.2 67.2 86.4 67.2 19.2 0 38.4-3.2 60.8-12.8v-57.6c-19.2 12.8-38.4 16-60.8 16-12.8 0-22.4-3.2-22.4-12.8-3.2-28.8 89.6-12.8 89.6-86.4v0zM112 425.6c48-3.2 83.2-41.6 83.2-86.4v-6.4h-67.2c-9.6 0-16-6.4-16-16v-67.2h-6.4c-51.2 0-89.6 38.4-89.6 89.6v3.2c6.4 48 48 86.4 96 83.2zM124.8 304c0 9.6 6.4 16 16 16-9.6 3.2-16-6.4-16-16zM304 233.6v-3.2c-3.2-51.2-44.8-86.4-96-83.2-48 3.2-83.2 41.6-83.2 86.4v6.4h76.8c0 0 0 0 3.2 3.2v0c0 0 0 0 3.2 3.2v0c0 0 0 0 0 3.2v0 73.6h6.4c51.2 0 89.6-41.6 89.6-89.6zM208 252.8v0c0-3.2 0-3.2 0-3.2v0-3.2c0 0 0 0-3.2-3.2v0c0 0 0 0-3.2-3.2v0c0 0 0 0-3.2 0v0h-73.6v67.2c0 9.6 6.4 16 16 16h67.2v-70.4c0 3.2 0 0 0 0zM406.4 262.4c6.4-3.2 16-6.4 22.4-6.4-3.2-19.2-22.4-38.4-48-41.6-32-3.2-64 22.4-67.2 57.6-3.2 25.6 3.2 51.2 22.4 67.2 28.8 25.6 83.2 12.8 92.8-25.6-6.4-3.2-16-6.4-22.4-6.4 0 3.2-3.2 3.2-3.2 6.4-9.6 22.4-41.6 22.4-54.4 3.2-12.8-16-12.8-48 0-64 12.8-19.2 44.8-19.2 54.4 3.2 0 3.2 3.2 3.2 3.2 6.4zM860.8 259.2c-22.4 0-44.8 0-67.2 0 0-12.8 6.4-19.2 16-22.4s19.2 0 28.8 12.8c6.4-3.2 12.8-3.2 22.4-6.4-3.2-6.4-9.6-12.8-12.8-16-16-12.8-32-12.8-51.2-6.4-16 6.4-25.6 19.2-28.8 38.4-3.2 25.6 6.4 51.2 28.8 57.6 16 6.4 32 6.4 48-6.4 12.8-12.8 16-28.8 16-51.2zM832 281.6c-3.2 12.8-9.6 19.2-19.2 16-9.6 0-19.2-6.4-19.2-16 12.8 0 25.6 0 38.4 0zM643.2 217.6c-6.4 0-16 0-22.4 0 0 16 0 28.8 0 48 0 3.2 0 9.6 0 12.8 0 12.8-6.4 16-16 16s-16-6.4-16-19.2c0-16 0-32 0-48 0-3.2 0-6.4 0-9.6-9.6 0-16 0-25.6 0 0 32 0 64 0 96 16 3.2 22.4 3.2 25.6-3.2 9.6 3.2 16 6.4 25.6 6.4 16 0 28.8-9.6 28.8-25.6 0-25.6 0-48 0-73.6zM748.8 217.6c-6.4 0-16 0-22.4 0 0 16 0 28.8 0 48 0 3.2 0 9.6 0 12.8 0 12.8-6.4 16-16 16s-16-6.4-16-19.2c0-16 0-32 0-48 0-3.2 0-6.4 0-9.6-9.6 0-16 0-25.6 0 0 32 0 64 0 96 16 3.2 22.4 3.2 25.6-3.2 9.6 3.2 16 6.4 25.6 6.4 16 0 28.8-9.6 28.8-25.6 0-25.6 0-48 0-73.6zM441.6 265.6c0 28.8 19.2 51.2 51.2 51.2s48-19.2 48-51.2c0-28.8-19.2-51.2-48-51.2-32 3.2-51.2 22.4-51.2 51.2zM512 265.6c0 16-6.4 28.8-19.2 28.8s-22.4-9.6-22.4-28.8 9.6-28.8 22.4-28.8c12.8 0 19.2 12.8 19.2 28.8zM940.8 252.8c3.2-3.2 9.6-6.4 16-6.4-3.2-19.2-28.8-28.8-48-28.8-22.4 3.2-44.8 19.2-44.8 48-3.2 28.8 12.8 51.2 38.4 57.6 22.4 3.2 44.8-6.4 54.4-25.6-3.2 0-6.4-3.2-9.6-3.2s-6.4-3.2-9.6-3.2c-6.4 6.4-9.6 9.6-16 12.8s-16 0-22.4-6.4c-6.4-9.6-6.4-28.8 0-44.8 6.4-6.4 12.8-9.6 22.4-6.4 9.6-6.4 12.8 0 19.2 6.4zM1024 240c0-6.4 0-12.8 0-19.2-3.2 0-3.2 0-6.4 0-38.4-3.2-41.6 9.6-41.6 38.4 0 12.8 0 25.6 0 41.6-3.2 0-6.4 0-12.8 0 0 6.4 0 12.8 0 19.2 3.2 0 6.4 0 12.8 3.2 0 9.6 0 16 0 25.6 9.6 0 16 0 25.6 0 0-9.6 0-16 0-25.6 6.4 0 12.8 0 19.2 0 0-6.4 0-12.8 0-19.2-6.4 0-12.8 0-19.2 0 0-16 0-32 0-48 0-3.2 6.4-6.4 9.6-6.4 6.4-12.8 9.6-9.6 12.8-9.6z" />
<glyph unicode="&#xe930;" glyph-name="chart-bar" d="M0 240h147.2v-294.4h-147.2v294.4zM291.2 476.8h147.2v-531.2h-147.2v531.2zM585.6 713.6h147.2v-768h-147.2v768zM876.8 950.4h147.2v-1004.8h-147.2v1004.8z" />
<glyph unicode="&#xe931;" glyph-name="chart-line" d="M393.6 512c0 0-224-220.8-316.8-313.6-6.4-6.4-16-6.4-22.4 0l-51.2 51.2c-3.2 6.4-3.2 16 0 22.4 51.2 48 252.8 252.8 348.8 348.8 16 16 35.2 25.6 57.6 16 9.6-3.2 19.2-9.6 25.6-16 35.2-35.2 115.2-115.2 115.2-115.2 99.2 99.2 195.2 195.2 291.2 291.2-3.2 0-6.4 0-9.6 0-32 0-102.4 0-144 0-9.6 0-16 6.4-16 16v73.6c0 9.6 6.4 16 16 16 83.2 0 208 0 284.8 0 28.8 0 51.2-22.4 51.2-51.2 0-76.8 0-198.4 0-281.6 0-9.6-6.4-16-16-16h-73.6c-9.6 0-16 6.4-16 16 0 41.6 0 112 0 140.8 0 3.2 0 6.4 0 12.8-3.2-3.2-6.4-6.4-9.6-9.6-105.6-105.6-211.2-211.2-316.8-316.8-22.4-22.4-48-25.6-70.4-9.6-6.4 3.2-9.6 6.4-12.8 12.8-38.4 35.2-73.6 70.4-115.2 112zM1008-6.4h-982.4c-9.6 0-16 6.4-16 16v67.2c0 9.6 6.4 16 16 16h982.4c9.6 0 16-6.4 16-16v-67.2c0-9.6-6.4-16-16-16z" />
<glyph unicode="&#xe932;" glyph-name="dismiss" d="M512 960c-281.6 0-512-230.4-512-512s230.4-512 512-512 512 230.4 512 512-230.4 512-512 512zM512 854.4c80 0 156.8-22.4 224-67.2l-512-624c-76.8 76.8-118.4 176-118.4 284.8 0 224 182.4 406.4 406.4 406.4zM512 41.6c-70.4 0-140.8 19.2-201.6 54.4l505.6 620.8c64-73.6 102.4-169.6 102.4-268.8 0-224-182.4-406.4-406.4-406.4z" />
<glyph unicode="&#xe933;" glyph-name="down-arrow-02" d="M969.6 736c-3.2 3.2-6.4 3.2-12.8 3.2-9.6 0-19.2-6.4-28.8-12.8-128-131.2-400-400-400-400l-19.2-19.2-19.2 19.2c-3.2 3.2-265.6 268.8-393.6 396.8-3.2 3.2-6.4 6.4-9.6 9.6-6.4 3.2-12.8 6.4-19.2 6.4s-12.8-3.2-16-6.4l-9.6-6.4c-19.2-16-35.2-28.8-41.6-48v-12.8c3.2-12.8 16-22.4 25.6-32 105.6-105.6 211.2-211.2 316.8-316.8l140.8-140.8c3.2-3.2 6.4-6.4 9.6-9.6 6.4-3.2 12.8-6.4 19.2-6.4s12.8 3.2 19.2 6.4c3.2 3.2 6.4 6.4 9.6 9.6 156.8 156.8 313.6 313.6 467.2 470.4 3.2 3.2 6.4 6.4 6.4 6.4 6.4 9.6 12.8 22.4 6.4 32-16 19.2-35.2 35.2-51.2 51.2z" />
<glyph unicode="&#xe934;" glyph-name="information" d="M483.2 960c19.2 0 41.6 0 60.8 0 16-3.2 35.2-3.2 51.2-6.4 105.6-19.2 198.4-64 275.2-140.8 115.2-115.2 166.4-252.8 150.4-416-9.6-99.2-44.8-188.8-108.8-268.8-115.2-140.8-268.8-204.8-451.2-192-83.2 6.4-163.2 35.2-233.6 83.2-121.6 83.2-195.2 195.2-220.8 339.2-3.2 19.2-6.4 38.4-6.4 57.6s0 41.6 0 60.8c0 6.4 3.2 12.8 3.2 19.2 9.6 83.2 35.2 163.2 83.2 233.6 83.2 121.6 195.2 195.2 339.2 220.8 19.2 6.4 38.4 6.4 57.6 9.6zM572.8 355.2c0 9.6 0 16 0 25.6 0 41.6 0 83.2 0 124.8 0 44.8-38.4 73.6-80 57.6-25.6-9.6-38.4-32-38.4-60.8 0-64 0-128 0-195.2 0-32 0-67.2 0-99.2 0-28.8 16-51.2 38.4-57.6 41.6-12.8 80 12.8 80 57.6 0 51.2 0 99.2 0 147.2zM572.8 688c0 32-28.8 60.8-60.8 60.8s-60.8-28.8-60.8-60.8c0-32 28.8-60.8 60.8-60.8s60.8 28.8 60.8 60.8z" />
<glyph unicode="&#xe935;" glyph-name="vendor-form-add" d="M512 960c0 0 0 0 0 0-281.6 0-508.8-227.2-512-505.6-3.2-281.6 224-515.2 505.6-518.4 3.2 0 3.2 0 6.4 0 137.6 0 262.4 51.2 361.6 147.2s150.4 224 153.6 361.6v0c-3.2 281.6-230.4 515.2-515.2 515.2zM512 38.4c0 0 0 0 0 0-227.2 0-409.6 185.6-409.6 409.6 0 227.2 185.6 409.6 409.6 409.6 0 0 0 0 0 0 224 0 409.6-182.4 409.6-409.6 0-108.8-41.6-214.4-121.6-291.2-76.8-76.8-179.2-118.4-288-118.4zM723.2 499.2c-19.2 0-41.6 0-60.8 0h-99.2v156.8c0 6.4 0 9.6 0 16-6.4 25.6-28.8 41.6-54.4 38.4s-44.8-25.6-44.8-51.2c0-38.4 0-80 0-118.4v-41.6h-156.8c-3.2 0-9.6 0-16 0-25.6-6.4-41.6-28.8-38.4-54.4s25.6-44.8 51.2-44.8c38.4 0 80 0 118.4 0h41.6v-156.8c0-6.4 0-9.6 0-16 6.4-22.4 25.6-38.4 48-38.4 3.2 0 3.2 0 6.4 0 25.6 3.2 44.8 25.6 44.8 51.2 0 38.4 0 76.8 0 118.4v44.8h44.8c38.4 0 80 0 118.4 0 28.8 0 51.2 22.4 51.2 51.2-3.2 22.4-25.6 44.8-54.4 44.8z" />
<glyph unicode="&#xe936;" glyph-name="vendor-form-copy" d="M624 35.2c-12.8 6.4-25.6 9.6-35.2 9.6h-368c-22.4 0-32 6.4-32 32v444.8c0 6.4 0 9.6 0 16-6.4 25.6-28.8 44.8-57.6 41.6s-48-25.6-48-51.2c0-19.2 0-41.6 0-60.8v-390.4c0-80 57.6-134.4 137.6-134.4 54.4 0 112 0 166.4 0 67.2 0 137.6 0 204.8 0 25.6 0 48 16 54.4 38.4 6.4 16 0 41.6-22.4 54.4zM956.8 825.6v0c0 60.8-38.4 112-96 128-12.8 6.4-25.6 6.4-38.4 6.4h-169.6c-92.8 0-185.6 0-281.6 0-76.8 0-134.4-57.6-134.4-134.4 0-70.4 0-140.8 0-211.2v-387.2c0-83.2 54.4-137.6 137.6-137.6h444.8c83.2 0 137.6 54.4 137.6 137.6 0 198.4 0 400 0 598.4zM848 822.4v-595.2c0-22.4-6.4-28.8-28.8-28.8h-444.8c-22.4 0-28.8 6.4-28.8 28.8v595.2c0 25.6 6.4 32 32 32h441.6c22.4-3.2 28.8-9.6 28.8-32z" />
<glyph unicode="&#xe937;" glyph-name="vendor-form-delete" d="M976 784c-9.6 16-28.8 25.6-48 25.6-51.2 0-102.4 0-153.6 0h-60.8v51.2c0 60.8-38.4 99.2-99.2 99.2h-217.6c-60.8 0-99.2-38.4-99.2-99.2v-54.4h-57.6c-51.2 0-102.4 0-153.6 0-9.6 0-22.4-6.4-32-16s-16-22.4-16-38.4c0-28.8 22.4-51.2 54.4-54.4 9.6 0 16 0 25.6 0h32v-172.8c0-153.6 0-304 0-457.6 0-76.8 57.6-134.4 134.4-134.4 60.8 0 118.4 0 179.2 0 92.8 0 182.4 0 275.2 0 12.8 0 25.6 3.2 38.4 3.2 57.6 16 96 67.2 96 128v630.4h60.8c22.4 0 41.6 12.8 51.2 32 3.2 22.4 0 41.6-9.6 57.6zM412.8 806.4v44.8h195.2v-44.8h-195.2zM764.8 700.8v-627.2c0-22.4-6.4-28.8-28.8-28.8h-448c-19.2 0-25.6 9.6-25.6 25.6v630.4h502.4zM435.2 166.4c32 0 54.4 25.6 54.4 57.6v294.4c0 32-22.4 57.6-54.4 57.6-16 0-28.8-6.4-38.4-16s-16-25.6-16-41.6c0-99.2 0-198.4 0-297.6 0-32 22.4-54.4 54.4-54.4zM588.8 166.4c0 0 0 0 0 0 32 0 54.4 25.6 54.4 57.6v294.4c0 35.2-22.4 57.6-54.4 57.6 0 0 0 0 0 0-12.8 0-28.8-6.4-38.4-16s-16-25.6-16-41.6c0-99.2 0-198.4 0-297.6 0-16 6.4-32 16-41.6s22.4-12.8 38.4-12.8z" />
<glyph unicode="&#xe938;" glyph-name="tab-version-control" d="M912 608c-38.4 22.4-83.2 25.6-124.8 25.6-38.4 0-76.8 0-115.2 0-32 0-48 16-48 48 0 44.8 0 86.4 0 131.2 0 38.4-6.4 73.6-25.6 108.8 6.4-3.2 6.4-3.2 9.6-3.2 19.2-12.8 38.4-22.4 54.4-38.4 70.4-70.4 137.6-137.6 208-208 16-19.2 32-38.4 41.6-64zM144 121.6v579.2c-38.4 0-67.2-28.8-67.2-67.2v-521.6c0-96 80-176 176-176h262.4c38.4 0 67.2 28.8 67.2 67.2v0h-320c-67.2 0-118.4 54.4-118.4 118.4zM832 579.2h-188.8c-41.6 0-76.8 35.2-76.8 76.8v201.6c0 57.6-44.8 102.4-102.4 102.4h-179.2c-54.4 0-102.4-44.8-102.4-102.4v-713.6c0-57.6 44.8-102.4 102.4-102.4h560c57.6 0 102.4 44.8 102.4 102.4v320c0 64-51.2 115.2-115.2 115.2zM636.8 214.4c-25.6 0-48 0-73.6 0 0 0 0 0 0 0-28.8 0-57.6 0-86.4 0-54.4 3.2-99.2 57.6-89.6 112 6.4 54.4 48 89.6 102.4 89.6 48 0 96 0 144 0 57.6 0 105.6-48 102.4-105.6 3.2-51.2-41.6-92.8-99.2-96zM636.8 377.6c-32 0-57.6-25.6-57.6-57.6s25.6-57.6 57.6-57.6c32 0 57.6 25.6 57.6 57.6 0 28.8-25.6 57.6-57.6 57.6zM694.4 316.8c0-32-25.6-57.6-57.6-57.6s-57.6 25.6-57.6 57.6c0 32 25.6 57.6 57.6 57.6 32 3.2 57.6-25.6 57.6-57.6z" />
<glyph unicode="&#xe939;" glyph-name="tab-system-status" d="M1024 502.4c0 51.2 0 105.6-6.4 156.8-19.2 156.8-156.8 284.8-313.6 294.4-64 3.2-128 3.2-188.8 6.4-64-3.2-124.8 0-188.8-6.4-134.4-6.4-230.4-80-291.2-198.4-25.6-51.2-32-108.8-32-163.2 0-96 0-192 0-288 0-22.4 3.2-48 6.4-70.4 19.2-156.8 156.8-284.8 313.6-294.4 54.4-3.2 108.8-3.2 163.2-3.2 80 0 160 0 240 6.4 153.6 16 284.8 156.8 291.2 310.4 6.4 83.2 6.4 166.4 6.4 249.6zM832 390.4h-19.2c-28.8 0-60.8 0-92.8 0-6.4 0-6.4 0-9.6-6.4-9.6-25.6-19.2-48-28.8-73.6v-3.2c-12.8-32-38.4-51.2-70.4-51.2 0 0 0 0 0 0-32 0-57.6 19.2-70.4 51.2-16 44.8-35.2 89.6-51.2 134.4-12.8 35.2-25.6 70.4-38.4 105.6-6.4-9.6-12.8-19.2-16-28.8-16-28.8-35.2-57.6-51.2-89.6-16-28.8-44.8-44.8-76.8-44.8s-64 0-96 0h-22.4c-25.6 0-35.2 12.8-41.6 25.6-3.2 9.6-3.2 22.4 3.2 32s19.2 19.2 35.2 19.2c16 0 28.8 0 44.8 0 9.6 0 22.4 0 32 0 6.4 0 12.8 0 16 0 12.8 0 25.6 0 32 3.2s12.8 16 16 25.6c3.2 6.4 6.4 9.6 9.6 16 19.2 32 35.2 60.8 51.2 89.6s38.4 41.6 70.4 38.4c32-3.2 51.2-19.2 64-51.2 25.6-70.4 51.2-140.8 76.8-208l12.8-32c3.2 9.6 9.6 19.2 12.8 32 3.2 9.6 9.6 22.4 12.8 32 12.8 35.2 41.6 51.2 76.8 51.2 32 0 76.8 0 118.4 0 16 0 25.6-3.2 35.2-12.8 6.4-6.4 9.6-16 9.6-25.6 0-16-16-28.8-44.8-28.8z" />
<glyph unicode="&#xe93a;" glyph-name="tab-database-tools" d="M400 960c89.6 0 176-16 259.2-54.4 32-16 60.8-35.2 86.4-60.8 57.6-60.8 57.6-134.4 0-192-41.6-41.6-92.8-67.2-147.2-86.4-102.4-32-204.8-38.4-310.4-22.4-67.2 9.6-131.2 28.8-192 67.2-19.2 12.8-38.4 28.8-54.4 44.8-54.4 57.6-54.4 131.2 0 188.8 38.4 41.6 83.2 64 134.4 83.2 73.6 22.4 147.2 32 224 32zM6.4 588.8c83.2-76.8 182.4-105.6 288-121.6 67.2-9.6 134.4-9.6 204.8 0 3.2 0 6.4 0 9.6 0-60.8-60.8-96-134.4-105.6-220.8-19.2 0-41.6 0-60.8 3.2-70.4 6.4-140.8 19.2-204.8 51.2-41.6 19.2-80 44.8-105.6 80-19.2 25.6-25.6 51.2-25.6 83.2 0 41.6 0 83.2 0 124.8zM6.4 304c48-44.8 99.2-73.6 156.8-92.8s115.2-28.8 176-35.2c19.2 0 38.4-3.2 57.6-3.2 12.8-76.8 38.4-147.2 96-204.8-12.8 0-25.6-3.2-35.2-3.2-112-9.6-217.6 3.2-320 51.2-44.8 19.2-80 44.8-105.6 80-16 25.6-25.6 51.2-25.6 83.2 0 41.6 0 80 0 124.8zM489.6 131.2c3.2 16 9.6 28.8 22.4 35.2s12.8 12.8 12.8 25.6c-3.2 16-3.2 28.8 0 44.8 0 12.8 0 19.2-12.8 25.6-6.4 3.2-9.6 6.4-12.8 12.8-9.6 12.8-9.6 28.8-3.2 41.6 12.8 22.4 25.6 48 38.4 70.4 12.8 19.2 32 25.6 54.4 12.8 9.6-6.4 16-3.2 25.6 3.2 16 9.6 32 19.2 51.2 28.8 6.4 3.2 9.6 6.4 9.6 12.8 0 35.2 12.8 48 48 48 22.4 0 44.8 0 64 0 28.8 0 44.8-16 41.6-44.8 0-12.8 3.2-16 12.8-19.2 19.2-9.6 35.2-19.2 51.2-32 6.4-3.2 9.6-3.2 16 0 32 16 48 12.8 67.2-19.2 9.6-19.2 22.4-38.4 32-57.6 12.8-22.4 6.4-44.8-16-57.6-9.6-6.4-12.8-9.6-9.6-22.4 3.2-16 0-35.2 0-51.2 0-6.4 0-9.6 6.4-12.8 32-19.2 35.2-35.2 19.2-67.2-9.6-19.2-22.4-38.4-32-57.6-12.8-25.6-35.2-32-60.8-16-9.6 6.4-16 3.2-22.4-3.2-16-12.8-35.2-22.4-51.2-32-6.4-3.2-9.6-6.4-9.6-12.8 0-35.2-12.8-48-48-48-22.4 0-44.8 0-64 0-28.8 0-44.8 16-44.8 44.8 0 9.6-3.2 12.8-12.8 19.2-19.2 9.6-35.2 19.2-51.2 32-6.4 3.2-9.6 6.4-16 0-28.8-16-48-9.6-64 19.2-9.6 19.2-22.4 38.4-32 57.6-6.4 3.2-6.4 9.6-9.6 19.2zM643.2 211.2c0-60.8 51.2-112 112-112s112 51.2 112 112c0 60.8-51.2 112-112 112-64 0-112-51.2-112-112z" />
<glyph unicode="&#xe93b;" glyph-name="form-url" d="M512 960c0 0 0 0 0 0-3.2 0-3.2 0 0 0-3.2 0-3.2 0-6.4 0-278.4-3.2-505.6-230.4-505.6-512s227.2-508.8 505.6-512c0 0 0 0 3.2 0 0 0 0 0 0 0s0 0 3.2 0c281.6 0 512 230.4 512 512s-230.4 512-512 512zM934.4 492.8h-201.6c-3.2 134.4-32 265.6-76.8 355.2 147.2-54.4 259.2-192 278.4-355.2zM508.8 25.6c0 0 0 0 0 0-54.4 3.2-124.8 147.2-134.4 377.6h265.6c-6.4-230.4-80-377.6-131.2-377.6zM377.6 492.8c9.6 230.4 80 377.6 131.2 377.6 0 0 0 0 3.2 0 51.2 0 124.8-147.2 131.2-377.6h-265.6zM361.6 844.8c-44.8-89.6-70.4-217.6-76.8-352h-195.2c19.2 160 128 294.4 272 352zM89.6 403.2h195.2c3.2-134.4 28.8-262.4 76.8-352-144 57.6-252.8 192-272 352zM652.8 51.2c44.8 89.6 73.6 220.8 76.8 355.2h201.6c-16-166.4-128-304-278.4-355.2z" />
<glyph unicode="&#xe93c;" glyph-name="form-textbox" d="M816 35.2c-57.6 0-102.4 48-102.4 105.6 0 188.8 0 380.8 0 569.6v44.8c0 22.4 6.4 41.6 19.2 60.8 22.4 28.8 51.2 44.8 86.4 44.8 25.6 0 44.8 19.2 48 41.6s-9.6 44.8-32 54.4c3.2 0-3.2 3.2-3.2 3.2-6.4 3.2-19.2 3.2-32 0-3.2 0-6.4 0-6.4 0-6.4 0-12.8-3.2-16-3.2-41.6-9.6-80-32-108.8-64h-3.2c-9.6 3.2-16 9.6-25.6 16-32 25.6-67.2 41.6-108.8 48 0 0-25.6 3.2-38.4 0-28.8-6.4-41.6-32-35.2-54.4 3.2-25.6 25.6-41.6 54.4-41.6 57.6 0 102.4-48 102.4-105.6 0-192 0-384 0-579.2v-35.2c0-22.4-6.4-41.6-19.2-60.8-22.4-28.8-51.2-44.8-86.4-44.8-25.6 0-44.8-16-48-41.6-3.2-22.4 9.6-44.8 32-54.4 12.8-6.4 38.4-3.2 38.4-3.2 3.2 0 9.6 3.2 12.8 3.2 9.6 3.2 19.2 3.2 28.8 6.4 35.2 12.8 67.2 32 89.6 60.8 35.2-38.4 80-64 131.2-70.4 0 0 28.8-3.2 38.4 0 22.4 6.4 41.6 32 35.2 54.4 0 28.8-22.4 44.8-51.2 44.8zM505.6 163.2c3.2 0 3.2 0 6.4 0 25.6 0 44.8 22.4 48 44.8 3.2 25.6-12.8 48-38.4 51.2-6.4 3.2-12.8 3.2-19.2 3.2h-332.8c-41.6 0-70.4 28.8-70.4 70.4 0 73.6 0 150.4 0 224 0 3.2 0 9.6 0 12.8 6.4 35.2 32 57.6 67.2 57.6 64 0 131.2 0 195.2 0h144c28.8 0 51.2 22.4 51.2 51.2 0 12.8-6.4 25.6-16 35.2s-22.4 12.8-38.4 12.8h-64c-92.8 0-185.6 0-278.4 0-73.6 0-140.8-51.2-160-124.8 0-6.4-3.2-9.6-3.2-16-3.2-70.4-6.4-211.2 0-281.6 6.4-76.8 83.2-144 169.6-144l339.2 3.2c0 0 0 0 0 0zM1020.8 588.8c-9.6 67.2-60.8 121.6-124.8 137.6-19.2 3.2-41.6 6.4-60.8 6.4h-12.8c-12.8 0-25.6-3.2-35.2-12.8s-16-22.4-16-35.2c0-28.8 22.4-48 51.2-51.2 6.4 0 12.8 0 19.2 0s12.8 0 19.2 0c35.2 0 64-28.8 64-64 0-80 0-156.8 0-236.8 0-32-22.4-57.6-54.4-64-9.6 0-22.4 0-32 0-3.2 0-9.6 0-12.8 0-28.8 0-51.2-22.4-51.2-51.2s22.4-51.2 51.2-51.2c6.4 0 9.6 0 16 0s12.8 0 19.2 0c73.6 0 140.8 51.2 160 124.8 0 6.4 3.2 9.6 3.2 16 3.2 64 6.4 217.6-3.2 281.6z" />
<glyph unicode="&#xe93d;" glyph-name="form-textarea" d="M1024 886.4c0-35.2 0-73.6 0-108.8 0-3.2 0-3.2-3.2-6.4-9.6-35.2-32-57.6-70.4-67.2-3.2 0-9.6 0-12.8-3.2 0-169.6 0-339.2 0-512 35.2-3.2 64-19.2 76.8-51.2 3.2-6.4 6.4-16 6.4-22.4 0-35.2 0-73.6 0-108.8 0-3.2 0-6.4-3.2-9.6-6.4-28.8-25.6-48-51.2-57.6-6.4-3.2-12.8-3.2-22.4-6.4-35.2 0-73.6 0-108.8 0 0 0-3.2 0-3.2 3.2-38.4 6.4-60.8 35.2-67.2 70.4 0 3.2 0 9.6-3.2 12.8-169.6 0-339.2 0-512 0-3.2-35.2-19.2-64-51.2-76.8-6.4-3.2-16-3.2-22.4-6.4-35.2 0-73.6 0-108.8 0-3.2 0-6.4 0-6.4 3.2-32 6.4-51.2 25.6-60.8 57.6 3.2 3.2 0 6.4 0 9.6 0 38.4 0 73.6 0 112 0 3.2 3.2 6.4 3.2 6.4 9.6 35.2 28.8 54.4 60.8 64 6.4 3.2 12.8 3.2 19.2 3.2 0 169.6 0 339.2 0 508.8-41.6 6.4-70.4 28.8-83.2 73.6 0 0 0 0 0 0 0 38.4 0 73.6 0 112 6.4 22.4 12.8 41.6 28.8 51.2 12.8 9.6 28.8 16 44.8 22.4 38.4 0 73.6 0 112 0 0 0 3.2-3.2 6.4-3.2 32-9.6 51.2-28.8 60.8-60.8 3.2-6.4 3.2-12.8 3.2-19.2 169.6 0 339.2 0 512 0 0 28.8 12.8 51.2 38.4 67.2 9.6 6.4 22.4 9.6 35.2 16 38.4 0 73.6 0 112 0 3.2 0 6.4-3.2 9.6-3.2 28.8-9.6 48-25.6 57.6-54.4 0-6.4 0-9.6 3.2-16zM851.2 192c0 169.6 0 339.2 0 512-44.8 3.2-80 32-86.4 86.4-169.6 0-339.2 0-512 0 0-22.4-9.6-44.8-25.6-60.8-12.8-16-32-25.6-54.4-25.6 0-169.6 0-342.4 0-512 44.8-3.2 80-32 86.4-86.4 169.6 0 339.2 0 508.8 0 3.2 57.6 41.6 83.2 83.2 86.4zM169.6 790.4c0 28.8 0 57.6 0 83.2-28.8 0-57.6 0-83.2 0 0-28.8 0-54.4 0-83.2 28.8 0 54.4 0 83.2 0zM854.4 790.4c28.8 0 57.6 0 83.2 0 0 28.8 0 54.4 0 83.2-28.8 0-54.4 0-83.2 0 0-28.8 0-54.4 0-83.2zM169.6 105.6c-28.8 0-57.6 0-83.2 0 0-28.8 0-57.6 0-83.2 28.8 0 54.4 0 83.2 0 0 28.8 0 54.4 0 83.2zM854.4 105.6c0-28.8 0-57.6 0-83.2 28.8 0 57.6 0 83.2 0 0 28.8 0 54.4 0 83.2-28.8 0-54.4 0-83.2 0zM640 576c-28.8 0-57.6 0-83.2 0 0-86.4 0-169.6 0-256 12.8 0 25.6 0 38.4 0 25.6 0 44.8-19.2 44.8-41.6 0-25.6-19.2-41.6-44.8-41.6-54.4 0-108.8 0-166.4 0-25.6 0-44.8 19.2-44.8 41.6 0 25.6 19.2 41.6 44.8 41.6 12.8 0 25.6 0 38.4 0 0 86.4 0 169.6 0 256-28.8 0-54.4 0-86.4 0 0-12.8 0-28.8 0-44.8 0-19.2-12.8-32-28.8-38.4s-38.4 0-48 16c-6.4 6.4-9.6 19.2-9.6 25.6 0 28.8 0 54.4 0 83.2 0 25.6 19.2 44.8 44.8 44.8 112 0 224 0 336 0 28.8 0 44.8-19.2 44.8-44.8s0-54.4 0-80c0-25.6-19.2-44.8-41.6-44.8-25.6 0-41.6 19.2-41.6 44.8 3.2 12.8 3.2 25.6 3.2 38.4z" />
<glyph unicode="&#xe93e;" glyph-name="form-store-description" d="M963.2 825.6h-905.6c-3.2 0-6.4 0-9.6 0-16 0-28.8-9.6-38.4-22.4s-12.8-28.8-9.6-44.8c6.4-25.6 28.8-41.6 54.4-41.6h800c38.4 0 76.8 0 115.2 0 16 0 32 9.6 41.6 22.4s12.8 32 6.4 48c-3.2 25.6-25.6 38.4-54.4 38.4zM812.8 502.4h-755.2c-3.2 0-6.4 0-9.6 0-25.6-3.2-48-25.6-48-51.2 0-16 3.2-28.8 16-41.6 9.6-9.6 25.6-16 41.6-16 89.6 0 179.2 0 268.8 0h348.8c48 0 96 0 147.2 0 16 0 32 6.4 41.6 19.2s12.8 28.8 9.6 48c-9.6 25.6-32 41.6-60.8 41.6zM515.2 179.2c-153.6 0-307.2 0-460.8 0-12.8 0-22.4-3.2-35.2-12.8-19.2-16-22.4-38.4-16-60.8 9.6-22.4 25.6-35.2 51.2-35.2 54.4 0 108.8 0 163.2 0h134.4c54.4 0 108.8 0 163.2 0 28.8 0 54.4 22.4 54.4 54.4-3.2 28.8-28.8 54.4-54.4 54.4z" />
<glyph unicode="&#xe93f;" glyph-name="form-state" d="M371.2 521.6c3.2 0 6.4 0 6.4 0h518.4c25.6 0 44.8 19.2 44.8 44.8v0c0 25.6-19.2 44.8-44.8 44.8h-140.8c0 19.2 0 38.4-3.2 54.4-12.8 96-67.2 179.2-147.2 233.6s-176 70.4-268.8 48c-137.6-32-243.2-153.6-256-294.4v-60.8c6.4-48 22.4-92.8 41.6-137.6 54.4-128 124.8-243.2 201.6-364.8 16-25.6 38.4-51.2 73.6-64h44.8c38.4 12.8 60.8 41.6 73.6 64 12.8 19.2 22.4 38.4 35.2 57.6 9.6 16 19.2 32 28.8 48 25.6 44.8 48 80 67.2 115.2 51.2-19.2 86.4-60.8 96-118.4 6.4-38.4-3.2-76.8-28.8-108.8s-60.8-54.4-96-57.6c-12.8 0-25.6-3.2-35.2-3.2-131.2 0-265.6 0-396.8 0h-57.6c-25.6 0-44.8-19.2-44.8-44.8v0c-3.2-22.4 19.2-41.6 44.8-41.6h64c64 0 131.2 0 195.2 0 67.2 0 134.4 0 201.6 0 128 0 224 80 243.2 208 16 112-57.6 227.2-163.2 259.2-12.8 3.2-28.8 6.4-41.6 9.6-6.4 0-12.8 0-19.2 0-38.4 3.2-76.8 3.2-112 3.2-19.2 0-38.4 0-57.6 0-9.6 0-16 0-25.6 0-12.8 0-25.6 0-38.4 0-28.8 0-51.2 22.4-51.2 51.2 0 12.8 3.2 25.6 12.8 35.2 9.6 12.8 22.4 19.2 35.2 19.2zM419.2 684.8v0c38.4 0 67.2-32 67.2-67.2v-3.2c-38.4 0-73.6 0-112 0-6.4 0-16 0-22.4-3.2 0 3.2 0 6.4 0 6.4 0 35.2 28.8 67.2 67.2 67.2zM284.8 355.2c25.6-22.4 57.6-32 92.8-32v0c54.4 0 112 0 166.4 0-16-28.8-35.2-60.8-57.6-96s-41.6-67.2-64-102.4c-3.2-6.4-6.4-6.4-6.4-6.4s-3.2 0-6.4 6.4c-51.2 80-105.6 166.4-150.4 256 9.6-9.6 16-19.2 25.6-25.6zM236.8 428.8c-12.8 28.8-25.6 57.6-38.4 86.4-16 38.4-32 80-25.6 124.8 9.6 128 118.4 227.2 246.4 227.2v0c134.4 0 243.2-105.6 246.4-240 0-3.2 0-9.6 0-12.8h-89.6v3.2c0 41.6-16 83.2-48 115.2-28.8 28.8-70.4 48-112 48v0c-86.4 0-156.8-70.4-156.8-160 0-19.2 3.2-35.2 9.6-51.2-12.8-16-22.4-32-28.8-51.2-12.8-32-12.8-60.8-3.2-89.6z" />
<glyph unicode="&#xe940;" glyph-name="back" d="M745.6 956.8c-9.6 6.4-22.4 0-32-6.4 0 0-3.2-3.2-6.4-6.4-156.8-153.6-313.6-310.4-470.4-467.2-3.2-3.2-6.4-6.4-9.6-9.6-3.2-6.4-6.4-12.8-6.4-19.2s3.2-12.8 6.4-19.2c3.2-3.2 6.4-6.4 9.6-9.6l140.8-140.8c105.6-105.6 211.2-211.2 316.8-316.8 9.6-9.6 19.2-22.4 32-25.6h12.8c19.2 6.4 32 22.4 48 41.6l6.4 9.6c3.2 3.2 6.4 9.6 6.4 16s-3.2 12.8-6.4 19.2c-3.2 3.2-6.4 6.4-9.6 9.6-128 128-393.6 390.4-396.8 393.6l-19.2 19.2 19.2 19.2c0 0 268.8 272 400 400 6.4 9.6 12.8 19.2 12.8 28.8 0 6.4 0 9.6-3.2 12.8-12.8 16-28.8 35.2-51.2 51.2z" />
<glyph unicode="&#xe941;" glyph-name="form-section" d="M1020.8 780.8c-22.4 105.6-112 179.2-220.8 179.2-67.2 0-131.2 0-198.4 0h-179.2c-28.8 0-60.8 0-89.6 0-35.2 0-70.4 0-105.6 0-131.2 0-227.2-96-227.2-227.2 0-188.8 0-380.8 0-569.6 0-131.2 96-227.2 227.2-227.2 192 0 380.8 0 572.8 0 128 0 227.2 96 227.2 227.2 0 192 0 380.8 0 572.8-3.2 12.8-6.4 28.8-6.4 44.8zM576 35.2h-12.8c-3.2 0-3.2 0-6.4 0h-99.2c-32 0-64 0-99.2 0-44.8 0-92.8 0-137.6 0-60.8 0-108.8 38.4-121.6 99.2-3.2 9.6-3.2 22.4-3.2 32 0 188.8 0 377.6 0 563.2 0 76.8 51.2 131.2 131.2 131.2 86.4 0 169.6 0 256 0h67.2c3.2 0 6.4 0 9.6 0h12.8v-825.6zM924.8 163.2c0-76.8-51.2-128-128-128-12.8 0-25.6 0-41.6 0-12.8 0-22.4 0-35.2 0h-44.8v822.4h9.6c3.2 0 6.4 0 9.6 0h19.2c25.6 0 51.2 0 80 0 76.8 0 128-51.2 128-128 3.2-185.6 3.2-377.6 3.2-566.4z" />
<glyph unicode="&#xe942;" glyph-name="form-recaptcha" d="M745.6 150.4c-60.8-48-137.6-80-220.8-80-144 0-265.6 86.4-320 208l102.4 35.2-128 60.8-80 41.6-25.6-51.2-73.6-156.8 105.6 38.4c70.4-163.2 230.4-278.4 419.2-278.4 112 0 217.6 41.6 294.4 108.8l-73.6 73.6zM934.4 614.4c-64 137.6-195.2 236.8-348.8 256v-105.6c112-19.2 201.6-92.8 252.8-188.8l-115.2-48 147.2-60.8 64-28.8 32 80 57.6 131.2-89.6-35.2zM467.2 870.4l-163.2 57.6 44.8-89.6c-144-60.8-249.6-192-272-352h105.6c22.4 118.4 102.4 214.4 211.2 256l51.2-108.8 73.6 220.8-51.2 16z" />
<glyph unicode="&#xe943;" glyph-name="form-radio" d="M0 448c0 281.6 230.4 512 512 512s512-227.2 512-512c0-281.6-227.2-512-512-512-281.6 0-512 230.4-512 512zM512 857.6c-224 0-409.6-185.6-409.6-409.6s182.4-409.6 409.6-409.6c224 0 409.6 182.4 409.6 409.6 0 224-182.4 409.6-409.6 409.6zM512 192c-140.8 0-256 115.2-256 256s115.2 256 256 256c140.8 0 256-115.2 256-256s-115.2-256-256-256z" />
<glyph unicode="&#xe944;" glyph-name="form-postcode" d="M787.2 854.4c-182.4 0-368 0-550.4 0-128 0-233.6-105.6-233.6-233.6 0-115.2 0-230.4 0-345.6 0-105.6 73.6-198.4 176-227.2 6.4-3.2 16-3.2 22.4-6.4l9.6-3.2h611.2c3.2 0 9.6 3.2 12.8 3.2 9.6 3.2 19.2 3.2 28.8 9.6 89.6 32 144 92.8 160 185.6 0 3.2 3.2 6.4 3.2 9.6v400c0 3.2-3.2 6.4-3.2 9.6-22.4 115.2-118.4 198.4-236.8 198.4zM924.8 284.8c0-86.4-57.6-144-144-144-35.2 0-70.4 0-102.4 0-28.8 0-54.4 0-83.2 0h-163.2c-60.8 0-124.8 0-185.6 0-86.4 0-144 57.6-144 144 0 108.8 0 217.6 0 326.4 0 83.2 57.6 144 144 144 179.2 0 358.4 0 537.6 0 86.4 0 144-57.6 144-144-3.2-108.8-3.2-217.6-3.2-326.4zM668.8 518.4c-16-9.6-28.8-22.4-44.8-35.2-9.6-9.6-22.4-16-32-25.6-54.4-41.6-118.4-41.6-172.8 0-9.6 9.6-22.4 16-32 25.6-16 12.8-32 25.6-48 35.2-9.6 6.4-19.2 9.6-32 9.6-16 0-28.8-6.4-38.4-19.2-16-22.4-12.8-51.2 9.6-70.4 28.8-22.4 57.6-44.8 83.2-64 41.6-28.8 86.4-44.8 140.8-48 51.2 0 96 16 134.4 41.6 28.8 22.4 60.8 44.8 89.6 67.2 12.8 9.6 19.2 22.4 22.4 35.2s-3.2 25.6-9.6 38.4c-16 25.6-44.8 28.8-70.4 9.6z" />
<glyph unicode="&#xe945;" glyph-name="form-phone" d="M1017.6 524.8c-19.2 128-80 233.6-185.6 320-70.4 57.6-150.4 92.8-240 108.8-12.8 3.2-25.6 3.2-38.4 6.4h-76.8l-19.2-3.2c-12.8-3.2-25.6-3.2-38.4-6.4-163.2-28.8-281.6-112-355.2-246.4-35.2-64-57.6-134.4-64-211.2v-64l3.2-22.4c3.2-12.8 3.2-28.8 6.4-41.6 28.8-150.4 108.8-268.8 236.8-348.8 83.2-51.2 172.8-80 268.8-80 38.4 0 76.8 3.2 118.4 12.8 99.2 22.4 182.4 67.2 249.6 134.4 112 124.8 160 272 134.4 441.6zM937.6 448c0-112-44.8-220.8-124.8-300.8s-185.6-124.8-300.8-124.8c0 0 0 0 0 0-112 0-220.8 44.8-300.8 124.8s-124.8 188.8-124.8 300.8c0 233.6 192 425.6 425.6 425.6 0 0 0 0 0 0 236.8 0 425.6-192 425.6-425.6zM716.8 419.2c-35.2 35.2-86.4 35.2-121.6 0-9.6-9.6-19.2-19.2-28.8-28.8l-9.6-9.6c-41.6 28.8-76.8 67.2-112 108.8l9.6 9.6c9.6 9.6 19.2 19.2 28.8 28.8 35.2 35.2 35.2 86.4 0 121.6-28.8 28.8-57.6 60.8-89.6 89.6-35.2 35.2-86.4 35.2-121.6 0-3.2-9.6-12.8-16-22.4-25.6-35.2-38.4-57.6-83.2-57.6-134.4v0c0-25.6 12.8-67.2 12.8-70.4 22.4-67.2 60.8-128 112-188.8 83.2-92.8 172.8-153.6 275.2-182.4 19.2-6.4 35.2-6.4 54.4-6.4 25.6 0 54.4 6.4 80 16 35.2 16 57.6 38.4 80 64 35.2 35.2 35.2 86.4 0 121.6-28.8 28.8-60.8 57.6-89.6 86.4zM390.4 566.4l-19.2-19.2c-32-32-32-70.4-6.4-105.6 41.6-54.4 89.6-102.4 147.2-144 35.2-25.6 73.6-22.4 102.4 9.6l41.6 41.6c25.6-25.6 51.2-51.2 76.8-76.8l-3.2-3.2c-12.8-12.8-25.6-25.6-41.6-35.2-16-6.4-28.8-9.6-48-9.6v0c-16 0-35.2 6.4-51.2 12.8-83.2 32-153.6 83.2-217.6 163.2-35.2 44.8-60.8 86.4-76.8 137.6-16 41.6-9.6 76.8 22.4 108.8 6.4 6.4 16 16 22.4 22.4 25.6-25.6 51.2-51.2 76.8-76.8-9.6-9.6-16-19.2-25.6-25.6z" />
<glyph unicode="&#xe946;" glyph-name="form-paypal-email" d="M1024 560c0 3.2-3.2 9.6-3.2 12.8-3.2 9.6-3.2 19.2-6.4 28.8-22.4 76.8-73.6 128-153.6 153.6-12.8 3.2-25.6 6.4-38.4 9.6-6.4 0-6.4 0-6.4 6.4-9.6 51.2-38.4 96-76.8 131.2-38.4 32-83.2 48-134.4 54.4 0 0-3.2 0-3.2 0l-422.4 3.2-144-659.2c-12.8-51.2-22.4-105.6-35.2-156.8 0 0 0 0 0-3.2v-16h236.8l-38.4-172.8c0-3.2 0-3.2 0-6.4v-9.6h320l6.4 32c3.2 19.2 9.6 38.4 12.8 57.6l12.8 54.4c9.6 35.2 16 67.2 25.6 102.4 0 3.2 0 3.2 6.4 3.2 9.6 0 19.2 0 28.8 0 28.8 0 60.8 0 92.8 3.2 150.4 9.6 265.6 105.6 307.2 249.6 3.2 16 6.4 32 9.6 44.8 0 6.4 3.2 12.8 3.2 22.4 0 3.2 0 3.2 0 6.4v48zM348.8 864c73.6 0 147.2 0 220.8 0 51.2 0 89.6-16 121.6-48 12.8-12.8 22.4-28.8 25.6-48h-336l-38.4-166.4c-28.8-128-57.6-256-86.4-384 0 0 0-3.2 0-3.2-25.6 0-54.4 0-80 0-9.6 0-16 0-25.6 0h-35.2l140.8 649.6h92.8zM720 668.8c-3.2-9.6-3.2-19.2-6.4-28.8-25.6-92.8-92.8-150.4-188.8-160-22.4-3.2-44.8-3.2-60.8-3.2-12.8 0-28.8 0-41.6 0h-9.6l44.8 201.6h265.6c0-6.4 0-9.6-3.2-9.6zM313.6 32l80 348.8c3.2 0 3.2 0 6.4 0 12.8 0 28.8 0 41.6 0 28.8 0 60.8 0 89.6 3.2 150.4 16 249.6 105.6 284.8 252.8 3.2 9.6 3.2 19.2 6.4 28.8v6.4c6.4 0 9.6-3.2 16-3.2 67.2-22.4 99.2-67.2 96-137.6s-28.8-131.2-76.8-176c-44.8-44.8-105.6-67.2-176-70.4-35.2 0-70.4 0-105.6 0-16 0-32 0-48 0h-19.2l-67.2-252.8h-128z" />
<glyph unicode="&#xe947;" glyph-name="form-multi-select" d="M812.8 294.4c0 115.2 0 227.2 0 342.4 0 76.8-51.2 128-131.2 128-115.2 0-227.2 0-342.4 0-6.4 0-176 0-211.2 0-76.8 0-128-51.2-128-128 0-185.6 0-371.2 0-553.6 0-76.8 51.2-128 128-128 185.6 0 371.2 0 553.6 0 76.8 0 128 51.2 128 128 3.2 35.2 3.2 204.8 3.2 211.2zM732.8 80c0-32-16-48-48-48-185.6 0-371.2 0-556.8 0-32 0-48 16-48 48 0 92.8 0 185.6 0 278.4s0 185.6 0 278.4c0 32 16 48 48 48 185.6 0 371.2 0 556.8 0 32 0 48-16 48-48 0-185.6 0-371.2 0-556.8zM899.2 944c-192 0-384 0-576 0-38.4 0-76.8-16-96-51.2-12.8-25.6-16-48-16-73.6 0-9.6 6.4-16 16-16h48c9.6 0 16 6.4 16 16 0 19.2 9.6 44.8 38.4 44.8 3.2 0 6.4 0 9.6 0 185.6 0 368 0 553.6 0 25.6 0 48-22.4 48-48 0-185.6 0-368 0-553.6 0-41.6-19.2-54.4-70.4-54.4-9.6 0-16-6.4-16-16v-41.6c0-9.6 6.4-16 16-16s19.2 0 28.8 0c70.4 0 124.8 57.6 124.8 124.8 0 188.8 0 374.4 0 563.2 0 64-54.4 121.6-124.8 121.6zM531.2 480c-16 3.2-25.6-3.2-35.2-12.8-41.6-44.8-86.4-86.4-131.2-131.2-16 16-32 35.2-48 51.2-19.2 19.2-41.6 19.2-60.8 3.2-16-16-16-41.6 3.2-60.8 22.4-25.6 48-48 70.4-70.4 25.6-25.6 44.8-25.6 70.4 0 32 32 64 64 92.8 92.8 19.2 19.2 41.6 41.6 60.8 60.8 12.8 12.8 16 25.6 9.6 44.8-3.2 12.8-16 19.2-32 22.4z" />
<glyph unicode="&#xe948;" glyph-name="form-dropdown" d="M512 960c281.6 0 512-230.4 512-512s-230.4-512-512-512c-281.6 0-512 230.4-512 512s230.4 512 512 512zM921.6 448c0 227.2-185.6 409.6-409.6 409.6-227.2 0-412.8-185.6-409.6-409.6 0-227.2 185.6-409.6 409.6-409.6 227.2 0 409.6 185.6 409.6 409.6zM486.4 272l-188.8 227.2c-16 19.2-3.2 51.2 25.6 51.2h377.6c25.6 0 41.6-32 25.6-51.2l-188.8-227.2c-12.8-16-38.4-16-51.2 0z" />
<glyph unicode="&#xe949;" glyph-name="form-checkboxes" d="M1024 412.8c0-9.6-3.2-19.2-3.2-25.6-3.2-25.6-28.8-44.8-54.4-41.6s-44.8 22.4-44.8 48c0 16 3.2 32 3.2 48 0 198.4-134.4 368-329.6 406.4-224 48-444.8-99.2-486.4-326.4-44.8-224 112-448 339.2-480 99.2-16 192 3.2 278.4 57.6 12.8 6.4 22.4 12.8 35.2 9.6 22.4-3.2 38.4-19.2 41.6-38.4 3.2-22.4-3.2-41.6-22.4-54.4-41.6-25.6-89.6-48-137.6-60.8-32-6.4-64-12.8-92.8-16-3.2 0-6.4 0-6.4-3.2-22.4 0-48 0-70.4 0-3.2 0-3.2 0-6.4 3.2-44.8 3.2-86.4 12.8-128 28.8-182.4 70.4-294.4 201.6-332.8 393.6-3.2 16-3.2 35.2-6.4 54.4 0 22.4 0 44.8 0 67.2 0 3.2 0 3.2 3.2 6.4 3.2 19.2 3.2 38.4 9.6 60.8 35.2 198.4 201.6 361.6 400 400 22.4 3.2 44.8 6.4 67.2 9.6 22.4 0 44.8 0 67.2 0 19.2-3.2 35.2-3.2 54.4-6.4 211.2-35.2 380.8-204.8 416-416 3.2-19.2 6.4-35.2 6.4-54.4 0-22.4 0-48 0-70.4zM435.2 377.6c6.4 6.4 6.4 9.6 9.6 12.8 76.8 76.8 153.6 153.6 227.2 227.2 16 16 32 22.4 51.2 16 35.2-9.6 48-51.2 25.6-80-3.2-3.2-6.4-6.4-6.4-6.4-89.6-89.6-179.2-179.2-265.6-268.8-25.6-25.6-54.4-25.6-80 0-38.4 38.4-80 80-118.4 118.4-28.8 28.8-16 73.6 22.4 83.2 19.2 3.2 35.2 0 48-16 25.6-25.6 54.4-51.2 80-80 0 3.2 3.2 0 6.4-6.4z" />
<glyph unicode="&#xe94a;" glyph-name="form-city" d="M732.8 41.6h-25.6c-32 0-60.8 0-92.8 0-12.8 0-19.2 6.4-22.4 19.2 0 6.4 0 12.8 0 19.2v204.8c0 192 0 384 0 572.8 0 54.4-22.4 89.6-67.2 105.6l-252.8-3.2c-25.6-12.8-60.8-32-64-73.6-3.2-38.4-3.2-80 0-118.4 0-25.6 19.2-44.8 48-44.8 25.6 0 44.8 12.8 51.2 38.4 3.2 9.6 3.2 19.2 3.2 28.8 0 19.2 0 38.4 0 57.6v6.4h179.2v-777.6c0-9.6 0-19.2 0-28.8 6.4-57.6 54.4-108.8 108.8-112 22.4 0 44.8 0 70.4 0s51.2 0 73.6 0c16 0 32 9.6 41.6 22.4s9.6 32 3.2 48c-6.4 16-19.2 35.2-54.4 35.2zM1020.8 675.2c0 51.2-19.2 86.4-57.6 105.6-41.6 22.4-83.2 16-124.8-12.8l-16-12.8c-32-25.6-67.2-48-99.2-73.6-28.8-19.2-38.4-41.6-38.4-76.8 0-108.8 0-214.4 0-323.2v-134.4c0-6.4 0-16 0-22.4 3.2-25.6 25.6-41.6 51.2-44.8 25.6 0 48 19.2 51.2 44.8 0 6.4 0 16 0 25.6v118.4c0 105.6 0 211.2 0 320 0 6.4 3.2 9.6 0 9.6 38.4 28.8 80 60.8 121.6 86.4 0 0 3.2 3.2 3.2 0 0 0 3.2-3.2 3.2-6.4s0-6.4 0-12.8v-672c0-6.4 0-12.8 0-19.2 3.2-25.6 19.2-41.6 44.8-44.8 3.2 0 6.4 0 6.4 0 22.4 0 38.4 12.8 48 32 3.2 12.8 3.2 22.4 3.2 35.2 0 89.6 0 179.2 0 268.8v166.4c3.2 83.2 3.2 163.2 3.2 243.2zM297.6 704c-54.4 0-105.6 0-156.8 0h-38.4c-67.2 0-99.2-32-99.2-99.2v-441.6c0-54.4 28.8-67.2 51.2-67.2 16 0 25.6 3.2 35.2 12.8 12.8 12.8 16 28.8 16 54.4v435.2h182.4v-595.2c0-6.4 0-12.8 0-19.2 3.2-28.8 25.6-44.8 51.2-44.8 0 0 3.2 0 3.2 0 28.8 3.2 48 25.6 48 60.8 0 204.8 0 409.6 0 614.4 0 54.4-35.2 89.6-92.8 89.6z" />
<glyph unicode="&#xe94b;" glyph-name="form-country" d="M864 358.4c-6.4-25.6-12.8-48-25.6-73.6-32-73.6-83.2-131.2-153.6-172.8-16-9.6-32-16-48-25.6l-6.4-3.2c-3.2-3.2-6.4-3.2-12.8-3.2 0 9.6 0 19.2 0 32 0 0 3.2 3.2 6.4 9.6 12.8 12.8 22.4 22.4 35.2 35.2 6.4 6.4 16 16 22.4 22.4 25.6 25.6 41.6 48 54.4 76.8 12.8 22.4 19.2 48 19.2 76.8 0 38.4-19.2 67.2-57.6 76.8-6.4 3.2-16 3.2-22.4 6.4-3.2-3.2-9.6 0-19.2 0-19.2 6.4-32 16-44.8 35.2l-3.2 3.2c-3.2 6.4-6.4 9.6-9.6 16-25.6 41.6-67.2 54.4-115.2 28.8-6.4-3.2-16-9.6-22.4-12.8-6.4-6.4-16-9.6-22.4-12.8-38.4-16-70.4-12.8-96 9.6-12.8 9.6-16 19.2-16 32 0 3.2 0 9.6 3.2 12.8 0 3.2 3.2 3.2 3.2 3.2s3.2 0 6.4 0c6.4-3.2 12.8-6.4 16-6.4 6.4-3.2 9.6-3.2 16-6.4 48-22.4 83.2-3.2 99.2 16 25.6 25.6 35.2 32 67.2 32h22.4l-32 83.2h-12.8c-38.4-3.2-70.4-22.4-102.4-51.2-3.2-3.2-6.4-6.4-16 0-12.8 6.4-22.4 12.8-35.2 16-44.8 16-86.4 0-108.8-41.6-9.6-16-12.8-32-12.8-48-12.8 3.2-25.6 6.4-35.2 9.6l3.2 6.4c3.2 16 9.6 28.8 16 41.6s12.8 25.6 19.2 38.4c6.4 9.6 12.8 19.2 19.2 32 9.6 19.2 12.8 38.4 9.6 57.6-3.2 22.4-12.8 38.4-32 51.2 83.2 67.2 198.4 92.8 304 70.4l9.6-3.2 57.6 80-22.4 6.4c-28.8 6.4-64 9.6-76.8 12.8h-64l-16-3.2c-12.8 0-25.6-3.2-38.4-6.4-115.2-22.4-214.4-76.8-288-169.6-60.8-73.6-96-156.8-105.6-256v-76.8l3.2-16c0-12.8 3.2-25.6 6.4-35.2 22.4-118.4 80-217.6 176-294.4 73.6-57.6 156.8-92.8 249.6-102.4 16 0 32-3.2 51.2-3.2 115.2 0 217.6 38.4 307.2 115.2 83.2 70.4 137.6 160 160 265.6 0 3.2 3.2 9.6 3.2 16 3.2 12.8 6.4 28.8 6.4 35.2l6.4 35.2-99.2-73.6h-6.4zM124.8 512c6.4-32 32-54.4 70.4-64 51.2-12.8 96-38.4 147.2-67.2l6.4-3.2c6.4-3.2 6.4-6.4 6.4-12.8s0-9.6 0-16c0-3.2 0-6.4 0-6.4-3.2-28.8 9.6-54.4 38.4-73.6 16-9.6 32-19.2 48-28.8 6.4-3.2 9.6-6.4 9.6-16 0-60.8 3.2-108.8 12.8-153.6 0-6.4 3.2-12.8 3.2-16-28.8 0-57.6 6.4-83.2 12.8-160 44.8-256 147.2-291.2 300.8-22.4 96-6.4 192 48 284.8 9.6 12.8 19.2 25.6 28.8 38.4 6.4 0 9.6 0 16 0-3.2-9.6-9.6-19.2-16-32-3.2-9.6-9.6-19.2-12.8-28.8-9.6-16-19.2-35.2-28.8-54.4-6.4-19.2-9.6-41.6-3.2-64zM454.4 329.6l-19.2 12.8c0 12.8 0 25.6 0 41.6v3.2c22.4 3.2 44.8 12.8 67.2 28.8l3.2 3.2c3.2 3.2 6.4 6.4 9.6 6.4 3.2 3.2 6.4 3.2 6.4 6.4 0 0 3.2-3.2 6.4-6.4 16-25.6 38.4-57.6 73.6-73.6 16-6.4 32-12.8 48-16l12.8-3.2c3.2 0 6.4 0 6.4-3.2s0-3.2 0-6.4c-3.2-22.4-16-44.8-35.2-67.2-16-19.2-35.2-38.4-57.6-57.6-22.4-22.4-38.4-44.8-41.6-70.4-6.4 35.2-6.4 70.4-6.4 102.4 0 38.4-16 70.4-51.2 89.6-6.4 0-12.8 3.2-22.4 9.6zM1017.6 736c-6.4 35.2-22.4 64-44.8 92.8-32 38.4-70.4 64-115.2 73.6-9.6 3.2-22.4 3.2-32 6.4l-12.8 3.2h-32c-35.2-3.2-70.4-12.8-99.2-32-60.8-38.4-96-96-105.6-166.4-6.4-48 3.2-92.8 28.8-137.6 19.2-35.2 44.8-64 67.2-89.6l12.8-12.8c28.8-28.8 57.6-60.8 80-96 6.4-12.8 19.2-19.2 32-19.2 0 0 0 0 0 0 12.8 0 25.6 6.4 32 19.2 3.2 3.2 6.4 6.4 6.4 9.6 3.2 6.4 9.6 12.8 12.8 16 25.6 28.8 51.2 57.6 76.8 86.4 28.8 32 54.4 60.8 73.6 99.2 25.6 44.8 32 96 19.2 147.2zM934.4 630.4c-9.6-22.4-25.6-44.8-48-70.4-16-19.2-32-35.2-48-54.4l-32-35.2c-3.2-3.2-3.2-3.2-6.4-6.4l-16 16c-22.4 22.4-44.8 48-64 70.4-16 16-25.6 32-38.4 48-28.8 41.6-35.2 83.2-22.4 128s41.6 76.8 83.2 92.8c19.2 9.6 38.4 12.8 54.4 12.8 25.6 0 51.2-6.4 76.8-22.4 64-35.2 86.4-115.2 60.8-179.2z" />
<glyph unicode="&#xe94c;" glyph-name="form-attachment" d="M758.4 950.4c-12.8 3.2-25.6 6.4-38.4 6.4-6.4 0-12.8 0-19.2 3.2h-32c-3.2 0-12.8-3.2-19.2-3.2-16-3.2-28.8-3.2-44.8-6.4-60.8-12.8-112-44.8-160-89.6-115.2-115.2-227.2-227.2-342.4-342.4-57.6-57.6-92.8-131.2-99.2-211.2 0-3.2 0-6.4 0-6.4v-44.8l3.2-22.4c16-105.6 73.6-188.8 166.4-246.4 80-48 169.6-60.8 262.4-32 28.8 9.6 60.8 19.2 86.4 41.6 12.8 9.6 16 25.6 16 41.6-3.2 16-12.8 28.8-25.6 35.2-16 9.6-32 9.6-54.4 0-48-19.2-102.4-25.6-153.6-16-86.4 12.8-147.2 64-179.2 144-32 89.6-16 172.8 54.4 243.2 83.2 83.2 169.6 169.6 252.8 252.8l89.6 89.6c6.4 6.4 16 12.8 22.4 19.2 51.2 38.4 112 54.4 172.8 44.8s115.2-41.6 153.6-89.6c70.4-92.8 64-217.6-19.2-300.8-44.8-44.8-96-96-144-144-12.8-12.8-32-25.6-48-32-32-12.8-67.2-6.4-92.8 19.2-25.6 22.4-32 54.4-22.4 86.4 6.4 25.6 22.4 41.6 35.2 54.4l25.6 25.6c22.4 19.2 41.6 41.6 60.8 64 12.8 16 19.2 32 12.8 51.2s-19.2 32-38.4 35.2c-19.2 6.4-38.4 0-57.6-19.2-22.4-22.4-41.6-41.6-64-64l-19.2-19.2c-25.6-25.6-44.8-54.4-57.6-86.4-19.2-51.2-16-105.6 3.2-150.4 22.4-48 64-83.2 112-102.4 76.8-25.6 144-12.8 208 44.8 41.6 38.4 80 76.8 118.4 118.4l32 35.2c19.2 19.2 32 35.2 41.6 51.2 57.6 83.2 76.8 172.8 54.4 265.6-28.8 131.2-115.2 220.8-252.8 256z" />
<glyph unicode="&#xe94d;" glyph-name="form-address01" d="M537.6 960c28.8-6.4 57.6-9.6 86.4-16 83.2-22.4 153.6-70.4 208-137.6 41.6-48 67.2-105.6 80-166.4 19.2-92.8 9.6-182.4-35.2-268.8-35.2-70.4-86.4-128-137.6-185.6s-99.2-112-150.4-169.6c-16-19.2-28.8-38.4-41.6-57.6-22.4-28.8-60.8-32-80 0-51.2 80-118.4 147.2-182.4 217.6-48 51.2-96 105.6-131.2 169.6-44.8 76.8-64 163.2-54.4 252.8 16 131.2 80 233.6 192 304 54.4 35.2 115.2 54.4 182.4 57.6 6.4 0 9.6 0 12.8 0 16 0 32 0 51.2 0zM512 70.4c9.6 12.8 22.4 25.6 32 41.6 54.4 57.6 105.6 118.4 160 176 38.4 44.8 73.6 89.6 99.2 144 60.8 137.6 6.4 307.2-121.6 387.2-92.8 54.4-188.8 64-288 25.6-96-38.4-156.8-108.8-185.6-204.8-28.8-99.2-9.6-192 51.2-278.4 22.4-32 48-64 76.8-96 57.6-64 115.2-131.2 176-195.2zM521.6 422.4c6.4 0 12.8 0 22.4 0 22.4-3.2 38.4-25.6 38.4-48s-19.2-41.6-41.6-44.8c-140.8-19.2-262.4 96-252.8 236.8 9.6 115.2 102.4 204.8 217.6 208 112 3.2 211.2-83.2 224-195.2 3.2-19.2 0-41.6 0-60.8-3.2-25.6-25.6-44.8-51.2-41.6s-44.8 25.6-41.6 51.2c3.2 28.8 0 54.4-12.8 83.2-32 64-112 89.6-176 54.4s-86.4-118.4-48-179.2c28.8-44.8 67.2-67.2 121.6-64z" />
<glyph unicode="&#xe94e;" glyph-name="form-address02" d="M537.6 960c28.8-6.4 57.6-9.6 86.4-16 83.2-22.4 153.6-70.4 208-137.6 41.6-48 67.2-105.6 80-166.4 19.2-92.8 9.6-182.4-35.2-268.8-35.2-70.4-86.4-128-137.6-185.6s-99.2-112-150.4-169.6c-16-19.2-28.8-38.4-41.6-57.6-22.4-28.8-60.8-32-80 0-51.2 80-118.4 147.2-182.4 217.6-48 51.2-96 105.6-131.2 169.6-44.8 76.8-64 163.2-54.4 252.8 16 131.2 80 233.6 192 304 54.4 35.2 115.2 54.4 182.4 57.6 6.4 0 9.6 0 12.8 0 16 0 32 0 51.2 0zM512 70.4c9.6 12.8 22.4 25.6 32 41.6 54.4 57.6 105.6 118.4 160 176 38.4 44.8 73.6 89.6 99.2 144 60.8 137.6 6.4 307.2-121.6 387.2-92.8 54.4-188.8 64-288 25.6-96-38.4-156.8-108.8-185.6-204.8-28.8-99.2-9.6-192 51.2-278.4 22.4-32 48-64 76.8-96 57.6-64 115.2-131.2 176-195.2zM521.6 422.4c6.4 0 12.8 0 22.4 0 22.4-3.2 38.4-25.6 38.4-48s-19.2-41.6-41.6-44.8c-140.8-19.2-262.4 96-252.8 236.8 9.6 115.2 102.4 204.8 217.6 208 112 3.2 211.2-83.2 224-195.2 3.2-19.2 0-41.6 0-60.8-3.2-25.6-25.6-44.8-51.2-41.6s-44.8 25.6-41.6 51.2c3.2 28.8 0 54.4-12.8 83.2-32 64-112 89.6-176 54.4s-86.4-118.4-48-179.2c28.8-44.8 67.2-67.2 121.6-64z" />
<glyph unicode="&#xe94f;" glyph-name="form-email" d="M678.4 262.4c-108.8-96-265.6-76.8-348.8 16-83.2 89.6-86.4 227.2-12.8 323.2 76.8 96 224 128 342.4 44.8 0 3.2 0 6.4 3.2 9.6 6.4 25.6 28.8 41.6 54.4 38.4s44.8-22.4 44.8-48c0-57.6 0-115.2 0-176 0-44.8 0-89.6 0-134.4 0-28.8 19.2-57.6 48-67.2s60.8-3.2 80 22.4c6.4 6.4 9.6 16 12.8 25.6 48 166.4 12.8 313.6-112 432-115.2 108.8-256 137.6-406.4 86.4s-243.2-156.8-275.2-313.6c-44.8-224 108.8-444.8 336-480 99.2-16 188.8 3.2 275.2 51.2 28.8 16 57.6 9.6 70.4-16s6.4-54.4-19.2-67.2c-44.8-28.8-96-48-147.2-60.8-278.4-60.8-550.4 112-611.2 390.4-64 278.4 121.6 560 403.2 611.2 278.4 54.4 544-128 598.4-406.4 16-89.6 12.8-176-19.2-259.2-25.6-70.4-73.6-108.8-147.2-115.2-70.4-6.4-128 25.6-163.2 86.4-3.2 0-3.2 3.2-6.4 6.4zM364.8 444.8c0-80 67.2-147.2 147.2-147.2s147.2 67.2 147.2 147.2c0 83.2-67.2 147.2-147.2 150.4-80 0-147.2-67.2-147.2-150.4z" />
<glyph unicode="&#xe950;" glyph-name="eye-preview" d="M915.2 608c-60.8 60.8-134.4 105.6-214.4 134.4-64 25.6-134.4 35.2-201.6 32-211.2-6.4-371.2-108.8-486.4-284.8-6.4-9.6-9.6-19.2-12.8-28.8 0-9.6 0-16 0-22.4 22.4-57.6 64-105.6 108.8-147.2 60.8-60.8 134.4-105.6 214.4-137.6 64-22.4 131.2-35.2 198.4-32 214.4 9.6 374.4 112 489.6 288 6.4 9.6 9.6 19.2 12.8 28.8 0 9.6 0 16 0 22.4-22.4 57.6-64 102.4-108.8 147.2zM374.4 630.4c35.2 44.8 80 64 134.4 67.2 9.6 0 22.4 0 32-16 3.2-9.6 3.2-22.4-3.2-28.8-6.4-9.6-16-16-28.8-16-38.4 0-70.4-19.2-92.8-51.2-12.8-16-19.2-35.2-19.2-57.6v0c0-3.2 0-6.4 0-9.6-3.2-16-12.8-28.8-28.8-28.8 0 0-3.2 0-3.2 0-16 0-28.8 16-25.6 32-3.2 41.6 9.6 76.8 35.2 108.8zM947.2 441.6c-60.8-92.8-140.8-163.2-240-208-80-35.2-160-48-246.4-38.4-134.4 16-240 80-326.4 176-19.2 22.4-35.2 48-54.4 70.4-3.2 3.2-3.2 9.6 0 12.8 48 70.4 105.6 131.2 176 172.8 9.6 6.4 22.4 12.8 32 19.2-60.8-115.2-32-249.6 64-326.4 89.6-73.6 220.8-70.4 304-12.8 102.4 70.4 147.2 211.2 76.8 339.2 12.8-6.4 25.6-12.8 35.2-19.2 73.6-44.8 131.2-105.6 176-176 6.4 0 6.4-3.2 3.2-9.6z" />
<glyph unicode="&#xe951;" glyph-name="left-arrow" d="M745.6 956.8c-9.6 6.4-22.4 0-32-6.4 0 0-3.2-3.2-6.4-6.4-156.8-153.6-313.6-310.4-470.4-467.2-3.2-3.2-6.4-6.4-9.6-9.6-3.2-6.4-6.4-12.8-6.4-19.2s3.2-12.8 6.4-19.2c3.2-3.2 6.4-6.4 9.6-9.6l140.8-140.8c105.6-105.6 211.2-211.2 316.8-316.8 9.6-9.6 19.2-22.4 32-25.6h12.8c19.2 6.4 32 22.4 48 41.6l6.4 9.6c3.2 3.2 6.4 9.6 6.4 16s-3.2 12.8-6.4 19.2c-3.2 3.2-6.4 6.4-9.6 9.6-128 128-393.6 390.4-396.8 393.6l-19.2 19.2 19.2 19.2c0 0 268.8 272 400 400 6.4 9.6 12.8 19.2 12.8 28.8 0 6.4 0 9.6-3.2 12.8-12.8 16-28.8 35.2-51.2 51.2z" />
<glyph unicode="&#xe952;" glyph-name="right-arrow" d="M224 908.8c-3.2-3.2-3.2-6.4-3.2-12.8 0-9.6 6.4-19.2 12.8-28.8 131.2-128 400-400 400-400l19.2-19.2-19.2-19.2c-3.2-3.2-268.8-265.6-396.8-393.6-3.2-3.2-6.4-6.4-9.6-9.6-3.2-6.4-6.4-12.8-6.4-19.2s3.2-12.8 6.4-16l6.4-9.6c16-19.2 28.8-35.2 48-41.6h12.8c12.8 3.2 22.4 16 32 25.6 105.6 105.6 211.2 211.2 316.8 316.8l140.8 140.8c3.2 3.2 6.4 6.4 9.6 9.6 3.2 6.4 6.4 12.8 6.4 19.2s-3.2 12.8-6.4 19.2c-3.2 3.2-6.4 6.4-9.6 9.6-156.8 156.8-313.6 313.6-470.4 467.2-3.2 3.2-6.4 6.4-6.4 6.4-9.6 6.4-22.4 12.8-32 6.4-19.2-16-35.2-35.2-51.2-51.2z" />
<glyph unicode="&#xe953;" glyph-name="link-right-arrow" d="M236.8 448c0 156.8 0 316.8 0 473.6 0 6.4 0 9.6 0 16 6.4 9.6 9.6 19.2 16 22.4 6.4 0 16 0 22.4-6.4 16-12.8 28.8-25.6 44.8-41.6 150.4-147.2 300.8-294.4 454.4-441.6 0 0 0 0 3.2-3.2 16-16 16-25.6 0-44.8-73.6-70.4-147.2-144-220.8-214.4-89.6-89.6-182.4-176-272-265.6-3.2-3.2-6.4-6.4-9.6-9.6-12.8-9.6-28.8 0-32 12.8 0 6.4 0 12.8 0 19.2-6.4 166.4-6.4 326.4-6.4 483.2z" />
<glyph unicode="&#xe954;" glyph-name="documentation-forum" d="M976 611.2c0 44.8-3.2 86.4-9.6 131.2-12.8 86.4-64 150.4-144 188.8-35.2 16-80 25.6-134.4 25.6-128 3.2-224 3.2-313.6 0-41.6 0-83.2-6.4-121.6-12.8-89.6-16-150.4-67.2-182.4-153.6-19.2-44.8-19.2-96-22.4-131.2 0-48 0-99.2 0-147.2 0-19.2-3.2-70.4-3.2-70.4v-38.4c0-35.2 0-73.6 0-112 0-44.8 3.2-89.6 9.6-134.4 16-96 70.4-163.2 163.2-198.4 32-12.8 67.2-19.2 115.2-19.2 89.6-3.2 179.2-3.2 259.2-3.2h16c48 0 102.4 0 153.6 12.8 96 19.2 160 73.6 192 166.4 12.8 35.2 19.2 73.6 19.2 124.8 3.2 115.2 6.4 243.2 3.2 371.2zM611.2 19.2h-70.4c-67.2 0-134.4 0-204.8 3.2-22.4 0-44.8 3.2-70.4 9.6-70.4 16-118.4 70.4-128 140.8-6.4 41.6-9.6 76.8-9.6 112 0 128 0 249.6 3.2 368 0 32 3.2 64 12.8 89.6 19.2 67.2 64 108.8 137.6 121.6 44.8 6.4 86.4 9.6 140.8 9.6h38.4c70.4 0 147.2 0 227.2-3.2 28.8 0 57.6-6.4 80-12.8 67.2-19.2 108.8-67.2 118.4-140.8 6.4-35.2 6.4-73.6 9.6-112 0-70.4 0-144 0-214.4v-89.6c0 0 0-3.2 0-3.2-80 0-147.2-28.8-201.6-80s-83.2-118.4-83.2-198.4zM889.6 217.6c0-57.6-16-105.6-48-137.6-32-35.2-80-54.4-144-54.4 0 48 19.2 96 51.2 134.4 35.2 38.4 86.4 60.8 137.6 60.8 0-3.2 0-3.2 3.2-3.2zM700.8 489.6h-374.4c-25.6 0-41.6-19.2-41.6-41.6s19.2-41.6 41.6-41.6h156.8c80 0 150.4 0 220.8 0 6.4 0 16 3.2 22.4 6.4 16 9.6 22.4 28.8 16 44.8-6.4 19.2-22.4 32-41.6 32zM326.4 595.2c9.6 0 16 0 28.8 0h83.2c9.6 0 19.2 0 28.8 0 12.8 0 22.4 6.4 32 12.8 6.4 6.4 12.8 19.2 12.8 28.8 0 22.4-19.2 41.6-44.8 41.6-48 0-92.8 0-137.6 0-6.4 0-16-3.2-19.2-3.2-22.4-9.6-32-28.8-28.8-48 6.4-19.2 22.4-32 44.8-32z" />
</font>
</defs>
</svg>
